NFOmation.net - Your Ultimate NFO Upload Resource! Viewing NFO file: Hantu_Kak_Limah_Balik_Rumah__2010__PPVRiP.txt Hantu_Kak_Limah_Balik_Rumah__2010__PPVRiP.txt

General
Complete name                    : Hantu Kak Limah Balik Rumah (2010) PPVRiP.rmvb
Format                           : RealMedia
File size                        : 321 MiB
Duration                         : 1h 37mn
Overall bit rate                 : 450 Kbps
Movie name                       : Hantu Kak Limah Balik Rumah (2010) PPVRiP

Video
ID                               : 1
Format                           : RealVideo 4
Codec ID                         : RV40
Codec ID/Info                    : Based on AVC (H.264), Real Player 9
Duration                         : 1h 37mn
Bit rate                         : 386 Kbps
Width                            : 640 pixels
Height                           : 336 pixels
Display aspect ratio             : 1.905
Frame rate                       : 25.000 fps
Bits/(Pixel*Frame)               : 0.072
Stream size                      : 269 MiB (84%)

Audio
ID                               : 0
Format                           : Cooker
Codec ID                         : cook
Codec ID/Info                    : Based on G.722.1, Real Player 6
Duration                         : 1h 37mn
Bit rate                         : 64.1 Kbps
Channel(s)                       : 2 channels
Sampling rate                    : 44.1 KHz
Bit depth                        : 16 bits
Stream size                      : 44.8 MiB (14%)



This NFO File was rendered by NFOmation.net

General
Complete name                    : Hantu Kak Limah Balik Rumah (2010) PPVRiP.rmvb
Format                           : RealMedia
File size                        : 321 MiB
Duration                         : 1h 37mn
Overall bit rate                 : 450 Kbps
Movie name                       : Hantu Kak Limah Balik Rumah (2010) PPVRiP

Video
ID                               : 1
Format                           : RealVideo 4
Codec ID                         : RV40
Codec ID/Info                    : Based on AVC (H.264), Real Player 9
Duration                         : 1h 37mn
Bit rate                         : 386 Kbps
Width                            : 640 pixels
Height                           : 336 pixels
Display aspect ratio             : 1.905
Frame rate                       : 25.000 fps
Bits/(Pixel*Frame)               : 0.072
Stream size                      : 269 MiB (84%)

Audio
ID                               : 0
Format                           : Cooker
Codec ID                         : cook
Codec ID/Info                    : Based on G.722.1, Real Player 6
Duration                         : 1h 37mn
Bit rate                         : 64.1 Kbps
Channel(s)                       : 2 channels
Sampling rate                    : 44.1 KHz
Bit depth                        : 16 bits
Stream size                      : 44.8 MiB (14%)



This NFO File was rendered by NFOmation.net


Bookmark and Share

<Mascot>
[ Sitemap ]

aa21