NFOmation.net - Your Ultimate NFO Upload Resource! Viewing NFO file: This_Means_War_2012_CAM_XViD_-_INSPiRAL.nfo This_Means_War_2012_CAM_XViD_-_INSPiRAL

http://i.imgur.com/2mcr9.png

TITLE:

This Means War 2012 CAM XViD - INSPiRAL

IMDB:

http://www.imdb.com/title/tt1596350/

SOURCES:

VIDEO - Lum1x sors    THANKS
AUDIO - A Good Friend THANKS
SUBS  - None Add

STATS:

Video
ID                               : 0
Format                           : MPEG-4 Visual
Format profile                   : Advanced Simple@L5
Format settings, BVOP            : 2
Format settings, QPel            : No
Format settings, GMC             : No warppoints
Format settings, Matrix          : Default (MPEG)
Muxing mode                      : Packed bitstream
Codec ID                         : XVID
Codec ID/Hint                    : XviD
Duration                         : 1h 31mn
Bit rate                         : 943 Kbps
Width                            : 608 pixels
Height                           : 256 pixels
Display aspect ratio             : 2.40:1
Frame rate                       : 25.000 fps
Color space                      : YUV
Chroma subsampling               : 4:2:0
Bit depth                        : 8 bits
Scan type                        : Progressive
Compression mode                 : Lossy
Bits/(Pixel*Frame)               : 0.242
Stream size                      : 617 MiB (87%)
Writing library                  : XviD 64

Audio
ID                               : 1
Format                           : MPEG Audio
Format version                   : Version 1
Format profile                   : Layer 3
Codec ID                         : 55
Codec ID/Hint                    : MP3
Duration                         : 1h 31mn
Bit rate mode                    : Constant
Bit rate                         : 128 Kbps
Channel(s)                       : 2 channels
Sampling rate                    : 44.1 KHz
Compression mode                 : Lossy
Stream size                      : 83.7 MiB (12%)
Alignment                        : Split accross interleaves
Interleave, duration             : 40 ms (1.00 video frame)
Interleave, preload duration     : 500 ms

NOTES:

Sources:
Video was a small 352 x 288 file and also have several cam movements with one major one 10mins into the film.
Colours and brightness etc...not too bad otherwise.
Audio was cam audio we were given and its not that bad too be honest.....

Workdone:
Took the video and cut into 4 files for each movement part and then cropped and resized each part ...so >>
AR does change
but only way to append them altogehter without adding black borders.
Also used a heavy noise filter,HQ smoother,brightness,contrast,chroma and rgb eq...

Audio we just needed to sync .....notice there is arounf 8 secs missing in the video when syncing and >>
that was roughly around
the cam movement times so nothing major and without telling you ,you more than likely wouldn't notice.

Ona side note ...Line is out and is internal so we'll be doing a TS soon ...but until its off >>
internal,heres a cam version for
those that can't wait or really ain't too bothered.

SCREENS:

http://i.imgur.com/EkNIM.png
http://i.imgur.com/pjEar.png
http://i.imgur.com/Kn21Q.png
http://i.imgur.com/NhV0z.png

GREETZ:

Past,Present and Future

http://i.imgur.com/2mcr9.png



This NFO File was rendered by NFOmation.net

http://i.imgur.com/2mcr9.png

TITLE:

This Means War 2012 CAM XViD - INSPiRAL

IMDB:

http://www.imdb.com/title/tt1596350/

SOURCES:

VIDEO - Lum1x sors    THANKS
AUDIO - A Good Friend THANKS
SUBS  - None Add

STATS:

Video
ID                               : 0
Format                           : MPEG-4 Visual
Format profile                   : Advanced Simple@L5
Format settings, BVOP            : 2
Format settings, QPel            : No
Format settings, GMC             : No warppoints
Format settings, Matrix          : Default (MPEG)
Muxing mode                      : Packed bitstream
Codec ID                         : XVID
Codec ID/Hint                    : XviD
Duration                         : 1h 31mn
Bit rate                         : 943 Kbps
Width                            : 608 pixels
Height                           : 256 pixels
Display aspect ratio             : 2.40:1
Frame rate                       : 25.000 fps
Color space                      : YUV
Chroma subsampling               : 4:2:0
Bit depth                        : 8 bits
Scan type                        : Progressive
Compression mode                 : Lossy
Bits/(Pixel*Frame)               : 0.242
Stream size                      : 617 MiB (87%)
Writing library                  : XviD 64

Audio
ID                               : 1
Format                           : MPEG Audio
Format version                   : Version 1
Format profile                   : Layer 3
Codec ID                         : 55
Codec ID/Hint                    : MP3
Duration                         : 1h 31mn
Bit rate mode                    : Constant
Bit rate                         : 128 Kbps
Channel(s)                       : 2 channels
Sampling rate                    : 44.1 KHz
Compression mode                 : Lossy
Stream size                      : 83.7 MiB (12%)
Alignment                        : Split accross interleaves
Interleave, duration             : 40 ms (1.00 video frame)
Interleave, preload duration     : 500 ms

NOTES:

Sources:
Video was a small 352 x 288 file and also have several cam movements with one major one 10mins into the film.
Colours and brightness etc...not too bad otherwise.
Audio was cam audio we were given and its not that bad too be honest.....

Workdone:
Took the video and cut into 4 files for each movement part and then cropped and resized each part ...so >>
AR does change
but only way to append them altogehter without adding black borders.
Also used a heavy noise filter,HQ smoother,brightness,contrast,chroma and rgb eq...

Audio we just needed to sync .....notice there is arounf 8 secs missing in the video when syncing and >>
that was roughly around
the cam movement times so nothing major and without telling you ,you more than likely wouldn't notice.

Ona side note ...Line is out and is internal so we'll be doing a TS soon ...but until its off >>
internal,heres a cam version for
those that can't wait or really ain't too bothered.

SCREENS:

http://i.imgur.com/EkNIM.png
http://i.imgur.com/pjEar.png
http://i.imgur.com/Kn21Q.png
http://i.imgur.com/NhV0z.png

GREETZ:

Past,Present and Future

http://i.imgur.com/2mcr9.png



This NFO File was rendered by NFOmation.net


Bookmark and Share

<Mascot>
[ Sitemap ]