NFOmation.net - Your Ultimate NFO Upload Resource! Viewing NFO file: The.Demented.2013.BDRiP.AC3-5.1.XviD-AXED.nfo The.Demented.2013.BDRiP.AC3-5.1.XviD-AXED

(  ___  )|\     /|(  ____ \(  __  \
| (   ) |( \   / )| (    \/| (  \  )
| (___) | \ (_) / | (__    | |   ) |
|  ___  |  ) _ (  |  __)   | |   | |
| (   ) | / ( ) \ | (      | |   ) |
| )   ( |( /   \ )| (____/\| (__/  )
|/     \||/     \|(_______/(______/
  _    _    _    _    _    _    _    _
 / \  / \  / \  / \  / \  / \  / \  / \
( p )( r )( e )( s )( e )( n )( t )( s )
 \_/  \_/  \_/  \_/  \_/  \_/  \_/  \_/

The.Demented.2013.BDRiP.AC3-5.1.XviD-AXED

POSTER:
http://img801.imageshack.us/img801/1411/97xb.jpg

IMDB:
http://www.imdb.com/title/tt2113792

PLOT INFO:
Six college friends unite for a weekend getaway where they find themselves fighting for their lives after >>
a terrorist attack turns the local residents into rage infused zombies.

Media Info:
General
Complete name                            : The.Demented.2013.BDRiP.AC3-5.1.XviD-AXED.avi
Format                                   : AVI
Format/Info                              : Audio Video Interleave
File size                                : 1.36 GiB
Duration                                 : 1h 32mn
Overall bit rate                         : 2 118 Kbps

Video
ID                                       : 0
Format                                   : MPEG-4 Visual
Format profile                           : Advanced Simple@L5
Format settings, BVOP                    : 2
Format settings, QPel                    : No
Format settings, GMC                     : No warppoints
Format settings, Matrix                  : Default (H.263)
Muxing mode                              : Packed bitstream
Codec ID                                 : XVID
Codec ID/Hint                            : XviD
Duration                                 : 1h 32mn
Bit rate                                 : 1 662 Kbps
Width                                    : 720 pixels
Height                                   : 400 pixels
Display aspect ratio                     : 16:9
Frame rate                               : 23.976 fps
Color space                              : YUV
Chroma subsampling                       : 4:2:0
Bit depth                                : 8 bits
Scan type                                : Progressive
Compression mode                         : Lossy
Bits/(Pixel*Frame)                       : 0.241
Stream size                              : 1.07 GiB (78%)
Writing library                          : XviD 64

Audio
ID                                       : 1
Format                                   : AC-3
Format/Info                              : Audio Coding 3
Mode extension                           : CM (complete main)
Format settings, Endianness              : Big
Codec ID                                 : 2000
Duration                                 : 1h 32mn
Bit rate mode                            : Constant
Bit rate                                 : 448 Kbps
Channel(s)                               : 6 channels
Channel positions                        : Front: L C R, Side: L R, LFE
Sampling rate                            : 48.0 KHz
Bit depth                                : 16 bits
Compression mode                         : Lossy
Stream size                              : 295 MiB (21%)
Alignment                                : Aligned on interleaves
Interleave, duration                     : 64 ms (1.53 video frames)
Interleave, preload duration             : 192 ms
Title                                    : thedemented

SOURCE:
Retail RA Blu-Ray DISC

NOTES:
Enjoy this new infection/zombie film.

AXED! We do this better.

SCREENS:
http://imageshack.us/a/img826/9015/57m.png
http://imageshack.us/a/img221/1559/5ql.png
http://imageshack.us/a/img829/1006/8yq.png
http://imageshack.us/a/img832/3700/54n.png
http://imageshack.us/a/img33/7769/nas7.png

[video=http://www.youtube.com/watch?v=OuyEfUDSUXg]


This NFO File was rendered by NFOmation.net

(  ___  )|\     /|(  ____ \(  __  \
| (   ) |( \   / )| (    \/| (  \  )
| (___) | \ (_) / | (__    | |   ) |
|  ___  |  ) _ (  |  __)   | |   | |
| (   ) | / ( ) \ | (      | |   ) |
| )   ( |( /   \ )| (____/\| (__/  )
|/     \||/     \|(_______/(______/
  _    _    _    _    _    _    _    _
 / \  / \  / \  / \  / \  / \  / \  / \
( p )( r )( e )( s )( e )( n )( t )( s )
 \_/  \_/  \_/  \_/  \_/  \_/  \_/  \_/

The.Demented.2013.BDRiP.AC3-5.1.XviD-AXED

POSTER:
http://img801.imageshack.us/img801/1411/97xb.jpg

IMDB:
http://www.imdb.com/title/tt2113792

PLOT INFO:
Six college friends unite for a weekend getaway where they find themselves fighting for their lives after >>
a terrorist attack turns the local residents into rage infused zombies.

Media Info:
General
Complete name                            : The.Demented.2013.BDRiP.AC3-5.1.XviD-AXED.avi
Format                                   : AVI
Format/Info                              : Audio Video Interleave
File size                                : 1.36 GiB
Duration                                 : 1h 32mn
Overall bit rate                         : 2 118 Kbps

Video
ID                                       : 0
Format                                   : MPEG-4 Visual
Format profile                           : Advanced Simple@L5
Format settings, BVOP                    : 2
Format settings, QPel                    : No
Format settings, GMC                     : No warppoints
Format settings, Matrix                  : Default (H.263)
Muxing mode                              : Packed bitstream
Codec ID                                 : XVID
Codec ID/Hint                            : XviD
Duration                                 : 1h 32mn
Bit rate                                 : 1 662 Kbps
Width                                    : 720 pixels
Height                                   : 400 pixels
Display aspect ratio                     : 16:9
Frame rate                               : 23.976 fps
Color space                              : YUV
Chroma subsampling                       : 4:2:0
Bit depth                                : 8 bits
Scan type                                : Progressive
Compression mode                         : Lossy
Bits/(Pixel*Frame)                       : 0.241
Stream size                              : 1.07 GiB (78%)
Writing library                          : XviD 64

Audio
ID                                       : 1
Format                                   : AC-3
Format/Info                              : Audio Coding 3
Mode extension                           : CM (complete main)
Format settings, Endianness              : Big
Codec ID                                 : 2000
Duration                                 : 1h 32mn
Bit rate mode                            : Constant
Bit rate                                 : 448 Kbps
Channel(s)                               : 6 channels
Channel positions                        : Front: L C R, Side: L R, LFE
Sampling rate                            : 48.0 KHz
Bit depth                                : 16 bits
Compression mode                         : Lossy
Stream size                              : 295 MiB (21%)
Alignment                                : Aligned on interleaves
Interleave, duration                     : 64 ms (1.53 video frames)
Interleave, preload duration             : 192 ms
Title                                    : thedemented

SOURCE:
Retail RA Blu-Ray DISC

NOTES:
Enjoy this new infection/zombie film.

AXED! We do this better.

SCREENS:
http://imageshack.us/a/img826/9015/57m.png
http://imageshack.us/a/img221/1559/5ql.png
http://imageshack.us/a/img829/1006/8yq.png
http://imageshack.us/a/img832/3700/54n.png
http://imageshack.us/a/img33/7769/nas7.png

[video=http://www.youtube.com/watch?v=OuyEfUDSUXg]


This NFO File was rendered by NFOmation.net


Bookmark and Share

<Mascot>
[ Sitemap ]

aa21