NFOmation.net - Your Ultimate NFO Upload Resource! Viewing NFO file: Dawn.Of.The.Planet.of.The.Apes.2014.720p.R6.HDCAM.XviD.MP3-RARBG.nfo Dawn.Of.The.Planet.of.The.Apes.2014.720p.R6.HDCAM.XviD.MP3-RARBG

Dawn.Of.The.Planet.of.The.Apes.2014.720p.R6.HDCAM.XviD.MP3-RARBG

Info:

[mediainfo]

Format                                   : AVI
Format/Info                              : Audio Video Interleave
Format profile                           : OpenDML
File size                                : 3.47 GiB
Duration                                 : 2h 4mn
Overall bit rate                         : 3 996 Kbps
Movie name                               : RARBG.COM - Dawn.Of.The.Planet.of.The.Apes.2014.720p.R6.H >>
CAM.XviD.MP3-RARBG
Writing library                          : VirtualDub build 35491/release
Comment                                  : RARBG.COM - Dawn.Of.The.Planet.of.The.Apes.2014.720p.R6.H >>
CAM.XviD.MP3-RARBG

Video
ID                                       : 0
Format                                   : MPEG-4 Visual
Format profile                           : Simple@L5
Format settings, BVOP                    : No
Format settings, QPel                    : No
Format settings, GMC                     : No warppoints
Format settings, Matrix                  : Default (H.263)
Codec ID                                 : XVID
Codec ID/Hint                            : XviD
Duration                                 : 2h 4mn
Bit rate                                 : 3 800 Kbps
Width                                    : 1 280 pixels
Height                                   : 720 pixels
Display aspect ratio                     : 16:9
Frame rate                               : 25.000 fps
Color space                              : YUV
Chroma subsampling                       : 4:2:0
Bit depth                                : 8 bits
Scan type                                : Progressive
Compression mode                         : Lossy
Bits/(Pixel*Frame)                       : 0.165
Stream size                              : 3.30 GiB (95%)
Writing library                          : Lavc56.1.100

Audio
ID                                       : 1
Format                                   : MPEG Audio
Format version                           : Version 1
Format profile                           : Layer 3
Mode                                     : Joint stereo
Mode extension                           : MS Stereo
Codec ID                                 : 55
Codec ID/Hint                            : MP3
Duration                                 : 1h 58mn
Bit rate mode                            : Constant
Bit rate                                 : 192 Kbps
Channel(s)                               : 2 channels
Sampling rate                            : 44.1 KHz
Compression mode                         : Lossy
Stream size                              : 163 MiB (5%)
Alignment                                : Aligned on interleaves
Interleave, duration                     : 27 ms (0.68 video frame)
Interleave, preload duration             : 522 ms
Writing library                          : LAME3.99.5

[/mediainfo]

Notes:
Sauce: JYK
Hardcoded Korean subtitles.
Added English subtitles for Apes language.
Greetz to everyone :)


This NFO File was rendered by NFOmation.net

Dawn.Of.The.Planet.of.The.Apes.2014.720p.R6.HDCAM.XviD.MP3-RARBG

Info:

[mediainfo]

Format                                   : AVI
Format/Info                              : Audio Video Interleave
Format profile                           : OpenDML
File size                                : 3.47 GiB
Duration                                 : 2h 4mn
Overall bit rate                         : 3 996 Kbps
Movie name                               : RARBG.COM - Dawn.Of.The.Planet.of.The.Apes.2014.720p.R6.H >>
CAM.XviD.MP3-RARBG
Writing library                          : VirtualDub build 35491/release
Comment                                  : RARBG.COM - Dawn.Of.The.Planet.of.The.Apes.2014.720p.R6.H >>
CAM.XviD.MP3-RARBG

Video
ID                                       : 0
Format                                   : MPEG-4 Visual
Format profile                           : Simple@L5
Format settings, BVOP                    : No
Format settings, QPel                    : No
Format settings, GMC                     : No warppoints
Format settings, Matrix                  : Default (H.263)
Codec ID                                 : XVID
Codec ID/Hint                            : XviD
Duration                                 : 2h 4mn
Bit rate                                 : 3 800 Kbps
Width                                    : 1 280 pixels
Height                                   : 720 pixels
Display aspect ratio                     : 16:9
Frame rate                               : 25.000 fps
Color space                              : YUV
Chroma subsampling                       : 4:2:0
Bit depth                                : 8 bits
Scan type                                : Progressive
Compression mode                         : Lossy
Bits/(Pixel*Frame)                       : 0.165
Stream size                              : 3.30 GiB (95%)
Writing library                          : Lavc56.1.100

Audio
ID                                       : 1
Format                                   : MPEG Audio
Format version                           : Version 1
Format profile                           : Layer 3
Mode                                     : Joint stereo
Mode extension                           : MS Stereo
Codec ID                                 : 55
Codec ID/Hint                            : MP3
Duration                                 : 1h 58mn
Bit rate mode                            : Constant
Bit rate                                 : 192 Kbps
Channel(s)                               : 2 channels
Sampling rate                            : 44.1 KHz
Compression mode                         : Lossy
Stream size                              : 163 MiB (5%)
Alignment                                : Aligned on interleaves
Interleave, duration                     : 27 ms (0.68 video frame)
Interleave, preload duration             : 522 ms
Writing library                          : LAME3.99.5

[/mediainfo]

Notes:
Sauce: JYK
Hardcoded Korean subtitles.
Added English subtitles for Apes language.
Greetz to everyone :)


This NFO File was rendered by NFOmation.net


Bookmark and Share

<Mascot>
[ Sitemap ]

aa21