NFOmation.net - Your Ultimate NFO Upload Resource! Viewing NFO file: Ted.2.2015.HD-TS.XVID.AC3.HQ.Hive-CM8.nfo Ted.2.2015.HD-TS.XVID.AC3.HQ.Hive-CM8

http://img540.imageshack.us/img540/8516/cnsNXT.jpg

Ted.2.2015.HD-TS.XVID.AC3.HQ.Hive-CM8

Thx Hive

CM8 Doing It Right The First Time

Sources:

Video: Semir 1080p Main, around MRG and LotterY  thx guys

Audio: Sweet Line Big Thx to S4NDM4N

Notes:

This movie is complete from start to finish with aftercredits scene, all english and perfect line.

Could have done a nice ts-release on day 1, but the semir cam was missing last 18mins of the movie,bummer
Was hoping someone would step up and go camming that last mins, but nobody wanted to go, this is such >>
a big movie and they all denied.
really dont understand the problem, waited 4 days nothing from russian,nothing from spanish, nothing >>
from italy so only lottery did cam it.
lottery cam its pretty much same like the missing scenes on minions, a bit unsharp, but watchable
they all decided to release the movie without the last 18mins, bollox
mrg did a nice job on muxing things together, but without fixing ar and perspective and with cam audio >>
i cant watch that.
ted needs some line to let you understand what he is talking, i wouldnt watch anything less than my version.

Theire wont be coming another cam,
Next is the korean web-dl which is due in 2-3 weeks, but it will feature subs and worst of all it will >>
be censored.
and ted is all about swearing and that censored is unwatchable, i gladly pass on that, i wanna see it all
so i had to step up and finish the job now.

Encode:

took me 2 days to get in done, awful lot of work
the main hdcam is semir which is quite nice, needed splitting in parts and fixing perspective when needed
removed some flicker and it needed brightening up and fixing the colours,
upfront 1min was missing, had to use lottery video for that,
cause it is a needed scene, also the narrative voice is talking the intro for the movie, cant be missed.
last 18mins is from lottery cam too, fixed perspective and ar on that too, got quite nice consider the >>
source(pics included)

Audio was another perfect line through and through, very professional

all in all its a good watch and will do me till retail.
got very nice
enjoy

Video: 720x304 @bitrate 1500 2pass
Audio: English Line Stereo 2.0
Sample: yes included

PS: terminator is next

you have access to 0 day HDCams? msg me

http://www.imdb.com/title/tt2637276/

General
Complete name                  : Ted.2.2015.HD-TS.XVID.AC3.HQ.Hive-CM8.avi
Format                         : AVI
Format/Info                    : Audio Video Interleave
File size                      : 1.35 GiB
Duration                       : 1h 48mn
Overall bit rate               : 1 781 Kbps
Writing application            : Nandub v1.0rc2
Writing library                : Nandub build 1853/release

Video
ID                             : 0
Format                         : MPEG-4 Visual
Format profile                 : Advanced Simple@L5
Format settings, BVOP          : 2
Format settings, QPel          : Yes
Format settings, GMC           : No warppoints
Format settings, Matrix        : Default (H.263)
Muxing mode                    : Packed bitstream
Codec ID                       : XVID
Codec ID/Hint                  : XviD
Duration                       : 1h 48mn
Bit rate                       : 1 513 Kbps
Width                          : 720 pixels
Height                         : 304 pixels
Display aspect ratio           : 2.35:1
Frame rate                     : 29.970 fps
Color space                    : YUV
Chroma subsampling             : 4:2:0
Bit depth                      : 8 bits
Scan type                      : Progressive
Compression mode               : Lossy
Bits/(Pixel*Frame)             : 0.231
Stream size                    : 1.15 GiB (85%)
Writing library                : XviD 1.2.1 (UTC 2008-12-04)

Audio
ID                             : 1
Format                         : AC-3
Format/Info                    : Audio Coding 3
Mode extension                 : CM (complete main)
Format settings, Endianness    : Big
Codec ID                       : 2000
Duration                       : 1h 48mn
Bit rate mode                  : Constant
Bit rate                       : 256 Kbps
Channel(s)                     : 2 channels
Channel positions              : Front: L R
Sampling rate                  : 48.0 KHz
Bit depth                      : 16 bits
Compression mode               : Lossy
Stream size                    : 199 MiB (14%)
Alignment                      : Split accross interleaves
Interleave, duration           : 33 ms (1.00 video frame)
Interleave, preload duration   : 500 ms

Screens

http://img673.imageshack.us/img673/7489/AffkVQ.png
http://img538.imageshack.us/img538/6711/thFDyw.png
http://img537.imageshack.us/img537/7397/CRdniO.png
http://img538.imageshack.us/img538/8796/cd8axU.png
http://img661.imageshack.us/img661/6950/DIhF0r.png
http://img673.imageshack.us/img673/7383/gz7zfs.png
http://img673.imageshack.us/img673/2695/Fp0hhZ.png
http://img537.imageshack.us/img537/6715/WnY3Ky.png
http://img913.imageshack.us/img913/1718/JZ6aGA.png

Last 18 mins:(without spoiling)

http://img905.imageshack.us/img905/3078/MUJV41.png
http://img661.imageshack.us/img661/6932/4NDrnD.png
http://img540.imageshack.us/img540/8960/FMx6ld.png

Plot

Newlywed couple Ted and Tami-Lynn want to have a baby, but in order to qualify to be a parent,
Ted will have to prove he's a person in a court of law.
Cast

Mark Wahlberg         ... John
Seth MacFarlane ... Ted (voice)
Amanda Seyfried ... Samantha
Jessica Barth         ... Tami-Lynn
Giovanni Ribisi ... Donny
Morgan Freeman         ... Patrick Meighan

[video=https://www.youtube.com/watch?v=S3AVcCggRnU]

Greetz

SugarB,iNCOMiNG,jiinx,SiMPLE,CherryBomb
ViSiON,YanKeeS,COPYxRIGHT,THC,VAiN,ACAB
LKRG,Kingstoner,ACAB,SiMPLE,TiTAN
Unevano,BigVik,Rapeseed,SAFC,goldadvance,KaN1vE,Pinnz,Wayne,HiGH
SeeN,jtr,Limey,ICONiK,TED,rkofan,mrtoke09 (ya whinging old man here ya go lol )
Mr Hive

LOOKING FOR ANYTHING YOU WANT TO LOOK AND SOUND BETTER

COME FIND US WE DONT BITE
CM8@hushmail.me


This NFO File was rendered by NFOmation.net

http://img540.imageshack.us/img540/8516/cnsNXT.jpg

Ted.2.2015.HD-TS.XVID.AC3.HQ.Hive-CM8

Thx Hive

CM8 Doing It Right The First Time

Sources:

Video: Semir 1080p Main, around MRG and LotterY  thx guys

Audio: Sweet Line Big Thx to S4NDM4N

Notes:

This movie is complete from start to finish with aftercredits scene, all english and perfect line.

Could have done a nice ts-release on day 1, but the semir cam was missing last 18mins of the movie,bummer
Was hoping someone would step up and go camming that last mins, but nobody wanted to go, this is such >>
a big movie and they all denied.
really dont understand the problem, waited 4 days nothing from russian,nothing from spanish, nothing >>
from italy so only lottery did cam it.
lottery cam its pretty much same like the missing scenes on minions, a bit unsharp, but watchable
they all decided to release the movie without the last 18mins, bollox
mrg did a nice job on muxing things together, but without fixing ar and perspective and with cam audio >>
i cant watch that.
ted needs some line to let you understand what he is talking, i wouldnt watch anything less than my version.

Theire wont be coming another cam,
Next is the korean web-dl which is due in 2-3 weeks, but it will feature subs and worst of all it will >>
be censored.
and ted is all about swearing and that censored is unwatchable, i gladly pass on that, i wanna see it all
so i had to step up and finish the job now.

Encode:

took me 2 days to get in done, awful lot of work
the main hdcam is semir which is quite nice, needed splitting in parts and fixing perspective when needed
removed some flicker and it needed brightening up and fixing the colours,
upfront 1min was missing, had to use lottery video for that,
cause it is a needed scene, also the narrative voice is talking the intro for the movie, cant be missed.
last 18mins is from lottery cam too, fixed perspective and ar on that too, got quite nice consider the >>
source(pics included)

Audio was another perfect line through and through, very professional

all in all its a good watch and will do me till retail.
got very nice
enjoy

Video: 720x304 @bitrate 1500 2pass
Audio: English Line Stereo 2.0
Sample: yes included

PS: terminator is next

you have access to 0 day HDCams? msg me

http://www.imdb.com/title/tt2637276/

General
Complete name                  : Ted.2.2015.HD-TS.XVID.AC3.HQ.Hive-CM8.avi
Format                         : AVI
Format/Info                    : Audio Video Interleave
File size                      : 1.35 GiB
Duration                       : 1h 48mn
Overall bit rate               : 1 781 Kbps
Writing application            : Nandub v1.0rc2
Writing library                : Nandub build 1853/release

Video
ID                             : 0
Format                         : MPEG-4 Visual
Format profile                 : Advanced Simple@L5
Format settings, BVOP          : 2
Format settings, QPel          : Yes
Format settings, GMC           : No warppoints
Format settings, Matrix        : Default (H.263)
Muxing mode                    : Packed bitstream
Codec ID                       : XVID
Codec ID/Hint                  : XviD
Duration                       : 1h 48mn
Bit rate                       : 1 513 Kbps
Width                          : 720 pixels
Height                         : 304 pixels
Display aspect ratio           : 2.35:1
Frame rate                     : 29.970 fps
Color space                    : YUV
Chroma subsampling             : 4:2:0
Bit depth                      : 8 bits
Scan type                      : Progressive
Compression mode               : Lossy
Bits/(Pixel*Frame)             : 0.231
Stream size                    : 1.15 GiB (85%)
Writing library                : XviD 1.2.1 (UTC 2008-12-04)

Audio
ID                             : 1
Format                         : AC-3
Format/Info                    : Audio Coding 3
Mode extension                 : CM (complete main)
Format settings, Endianness    : Big
Codec ID                       : 2000
Duration                       : 1h 48mn
Bit rate mode                  : Constant
Bit rate                       : 256 Kbps
Channel(s)                     : 2 channels
Channel positions              : Front: L R
Sampling rate                  : 48.0 KHz
Bit depth                      : 16 bits
Compression mode               : Lossy
Stream size                    : 199 MiB (14%)
Alignment                      : Split accross interleaves
Interleave, duration           : 33 ms (1.00 video frame)
Interleave, preload duration   : 500 ms

Screens

http://img673.imageshack.us/img673/7489/AffkVQ.png
http://img538.imageshack.us/img538/6711/thFDyw.png
http://img537.imageshack.us/img537/7397/CRdniO.png
http://img538.imageshack.us/img538/8796/cd8axU.png
http://img661.imageshack.us/img661/6950/DIhF0r.png
http://img673.imageshack.us/img673/7383/gz7zfs.png
http://img673.imageshack.us/img673/2695/Fp0hhZ.png
http://img537.imageshack.us/img537/6715/WnY3Ky.png
http://img913.imageshack.us/img913/1718/JZ6aGA.png

Last 18 mins:(without spoiling)

http://img905.imageshack.us/img905/3078/MUJV41.png
http://img661.imageshack.us/img661/6932/4NDrnD.png
http://img540.imageshack.us/img540/8960/FMx6ld.png

Plot

Newlywed couple Ted and Tami-Lynn want to have a baby, but in order to qualify to be a parent,
Ted will have to prove he's a person in a court of law.
Cast

Mark Wahlberg         ... John
Seth MacFarlane ... Ted (voice)
Amanda Seyfried ... Samantha
Jessica Barth         ... Tami-Lynn
Giovanni Ribisi ... Donny
Morgan Freeman         ... Patrick Meighan

[video=https://www.youtube.com/watch?v=S3AVcCggRnU]

Greetz

SugarB,iNCOMiNG,jiinx,SiMPLE,CherryBomb
ViSiON,YanKeeS,COPYxRIGHT,THC,VAiN,ACAB
LKRG,Kingstoner,ACAB,SiMPLE,TiTAN
Unevano,BigVik,Rapeseed,SAFC,goldadvance,KaN1vE,Pinnz,Wayne,HiGH
SeeN,jtr,Limey,ICONiK,TED,rkofan,mrtoke09 (ya whinging old man here ya go lol )
Mr Hive

LOOKING FOR ANYTHING YOU WANT TO LOOK AND SOUND BETTER

COME FIND US WE DONT BITE
CM8@hushmail.me


This NFO File was rendered by NFOmation.net


Bookmark and Share

<Mascot>
[ Sitemap ]

aa21