NFOmation.net - Your Ultimate NFO Upload Resource! Viewing NFO file: Alto.2015.UNRATED.720p.WEB-DL.XviD.AC3-RARBG.nfo Alto.2015.UNRATED.720p.WEB-DL.XviD.AC3-RARBG

http://imagecurl.com/images/ >>
7266480116357380764_thumb.png
http://imagecurl.com/images/ >>
4120975906240924038_thumb.png
http://imagecurl.com/images/ >>
0378785895223150172_thumb.png
http://imagecurl.com/images/ >>
6810158172525668419_thumb.png
http://imagecurl.com/images/ >>
5825354240860615036_thumb.png
http://imagecurl.com/images/ >>
6891493690224113082_thumb.png

[mediainfo]
Video
ID                                       : 0
Format                                   : MPEG-4 Visual
Format profile                           : Simple@L5
Format settings, BVOP                    : No
Format settings, QPel                    : No
Format settings, GMC                     : No warppoints
Format settings, Matrix                  : Default (H.263)
Codec ID                                 : XVID
Codec ID/Hint                            : XviD
Duration                                 : 1h 41mn
Bit rate                                 : 3 795 Kbps
Width                                    : 1 280 pixels
Height                                   : 720 pixels
Display aspect ratio                     : 16:9
Frame rate                               : 23.976 fps
Color space                              : YUV
Chroma subsampling                       : 4:2:0
Bit depth                                : 8 bits
Scan type                                : Progressive
Compression mode                         : Lossy
Bits/(Pixel*Frame)                       : 0.172
Stream size                              : 2.68 GiB (91%)
Writing library                          : Lavc56.13.100

Audio
ID                                       : 1
Format                                   : AC-3
Format/Info                              : Audio Coding 3
Mode extension                           : CM (complete main)
Format settings, Endianness              : Big
Codec ID                                 : 2000
Duration                                 : 1h 41mn
Bit rate mode                            : Constant
Bit rate                                 : 384 Kbps
Channel(s)                               : 6 channels
Channel positions                        : Front: L C R, Side: L R, LFE
Sampling rate                            : 48.0 KHz
Compression mode                         : Lossy
Stream size                              : 278 MiB (9%)
Alignment                                : Aligned on interleaves
Interleave, duration                     : 42 ms (1.00 video frame)
Interleave, preload duration             : 512 ms

[/mediainfo]



This NFO File was rendered by NFOmation.net

http://imagecurl.com/images/ >>
7266480116357380764_thumb.png
http://imagecurl.com/images/ >>
4120975906240924038_thumb.png
http://imagecurl.com/images/ >>
0378785895223150172_thumb.png
http://imagecurl.com/images/ >>
6810158172525668419_thumb.png
http://imagecurl.com/images/ >>
5825354240860615036_thumb.png
http://imagecurl.com/images/ >>
6891493690224113082_thumb.png

[mediainfo]
Video
ID                                       : 0
Format                                   : MPEG-4 Visual
Format profile                           : Simple@L5
Format settings, BVOP                    : No
Format settings, QPel                    : No
Format settings, GMC                     : No warppoints
Format settings, Matrix                  : Default (H.263)
Codec ID                                 : XVID
Codec ID/Hint                            : XviD
Duration                                 : 1h 41mn
Bit rate                                 : 3 795 Kbps
Width                                    : 1 280 pixels
Height                                   : 720 pixels
Display aspect ratio                     : 16:9
Frame rate                               : 23.976 fps
Color space                              : YUV
Chroma subsampling                       : 4:2:0
Bit depth                                : 8 bits
Scan type                                : Progressive
Compression mode                         : Lossy
Bits/(Pixel*Frame)                       : 0.172
Stream size                              : 2.68 GiB (91%)
Writing library                          : Lavc56.13.100

Audio
ID                                       : 1
Format                                   : AC-3
Format/Info                              : Audio Coding 3
Mode extension                           : CM (complete main)
Format settings, Endianness              : Big
Codec ID                                 : 2000
Duration                                 : 1h 41mn
Bit rate mode                            : Constant
Bit rate                                 : 384 Kbps
Channel(s)                               : 6 channels
Channel positions                        : Front: L C R, Side: L R, LFE
Sampling rate                            : 48.0 KHz
Compression mode                         : Lossy
Stream size                              : 278 MiB (9%)
Alignment                                : Aligned on interleaves
Interleave, duration                     : 42 ms (1.00 video frame)
Interleave, preload duration             : 512 ms

[/mediainfo]



This NFO File was rendered by NFOmation.net


Bookmark and Share

<Mascot>
[ Sitemap ]

aa21