NFOmation.net - Your Ultimate NFO Upload Resource! Viewing NFO file: Sky.2015.720p.WEB-DL.DD5.1.H264-FGT.nfo Sky.2015.720p.WEB-DL.DD5.1.H264-FGT

http://imagecurl.com/images/ >>
2389655523049847427_thumb.png
http://imagecurl.com/images/ >>
0208283430994221664_thumb.png
http://imagecurl.com/images/ >>
0685103278791083871_thumb.png
http://imagecurl.com/images/ >>
3467042238470649308_thumb.png
http://imagecurl.com/images/ >>
1382386195225046326_thumb.png
http://imagecurl.com/images/ >>
7120961667093207845_thumb.png

[mediainfo]
Video
ID                                       : 1
Format                                   : AVC
Format/Info                              : Advanced Video Codec
Format profile                           : High@L3.1
Format settings, CABAC                   : No
Format settings, ReFrames                : 2 frames
Codec ID                                 : V_MPEG4/ISO/AVC
Duration                                 : 1h 42mn
Bit rate                                 : 3 998 Kbps
Width                                    : 1 280 pixels
Height                                   : 720 pixels
Display aspect ratio                     : 16:9
Frame rate mode                          : Constant
Frame rate                               : 24.000 fps
Color space                              : YUV
Chroma subsampling                       : 4:2:0
Bit depth                                : 8 bits
Scan type                                : Progressive
Bits/(Pixel*Frame)                       : 0.181
Stream size                              : 2.87 GiB (89%)
Title                                    : Sky.2015.720p.WEB-DL.DD5.1.H264-FGT
Language                                 : English
Default                                  : Yes
Forced                                   : No
Color range                              : Limited
Color primaries                          : BT.709
Transfer characteristics                 : BT.709
Matrix coefficients                      : BT.709

Audio
ID                                       : 2
Format                                   : AC-3
Format/Info                              : Audio Coding 3
Mode extension                           : CM (complete main)
Format settings, Endianness              : Big
Codec ID                                 : A_AC3
Duration                                 : 1h 42mn
Bit rate mode                            : Constant
Bit rate                                 : 384 Kbps
Channel(s)                               : 6 channels
Channel positions                        : Front: L C R, Side: L R, LFE
Sampling rate                            : 48.0 KHz
Frame rate                               : 31.250 fps (1536 spf)
Compression mode                         : Lossy
Stream size                              : 282 MiB (9%)
Title                                    : Sky.2015.720p.WEB-DL.DD5.1.H264-FGT
Language                                 : English
Default                                  : Yes
Forced                                   : No

Text #1
ID                                       : 3
Format                                   : UTF-8
Codec ID                                 : S_TEXT/UTF8
Codec ID/Info                            : UTF-8 Plain Text
Title                                    : FORCED
Language                                 : English
Default                                  : Yes
Forced                                   : Yes

Text #2
ID                                       : 4
Format                                   : UTF-8
Codec ID                                 : S_TEXT/UTF8
Codec ID/Info                            : UTF-8 Plain Text
Language                                 : English
Default                                  : No
Forced                                   : No

Menu
00:00:00.000                             : en:1
00:12:46.000                             : en:2
00:22:54.000                             : en:3
00:35:01.000                             : en:4
00:44:37.000                             : en:5
00:55:16.000                             : en:6
01:07:05.000                             : en:7
01:18:22.000                             : en:8
01:30:27.000                             : en:9
01:38:26.000                             : en:10

[/mediainfo]



This NFO File was rendered by NFOmation.net

http://imagecurl.com/images/ >>
2389655523049847427_thumb.png
http://imagecurl.com/images/ >>
0208283430994221664_thumb.png
http://imagecurl.com/images/ >>
0685103278791083871_thumb.png
http://imagecurl.com/images/ >>
3467042238470649308_thumb.png
http://imagecurl.com/images/ >>
1382386195225046326_thumb.png
http://imagecurl.com/images/ >>
7120961667093207845_thumb.png

[mediainfo]
Video
ID                                       : 1
Format                                   : AVC
Format/Info                              : Advanced Video Codec
Format profile                           : High@L3.1
Format settings, CABAC                   : No
Format settings, ReFrames                : 2 frames
Codec ID                                 : V_MPEG4/ISO/AVC
Duration                                 : 1h 42mn
Bit rate                                 : 3 998 Kbps
Width                                    : 1 280 pixels
Height                                   : 720 pixels
Display aspect ratio                     : 16:9
Frame rate mode                          : Constant
Frame rate                               : 24.000 fps
Color space                              : YUV
Chroma subsampling                       : 4:2:0
Bit depth                                : 8 bits
Scan type                                : Progressive
Bits/(Pixel*Frame)                       : 0.181
Stream size                              : 2.87 GiB (89%)
Title                                    : Sky.2015.720p.WEB-DL.DD5.1.H264-FGT
Language                                 : English
Default                                  : Yes
Forced                                   : No
Color range                              : Limited
Color primaries                          : BT.709
Transfer characteristics                 : BT.709
Matrix coefficients                      : BT.709

Audio
ID                                       : 2
Format                                   : AC-3
Format/Info                              : Audio Coding 3
Mode extension                           : CM (complete main)
Format settings, Endianness              : Big
Codec ID                                 : A_AC3
Duration                                 : 1h 42mn
Bit rate mode                            : Constant
Bit rate                                 : 384 Kbps
Channel(s)                               : 6 channels
Channel positions                        : Front: L C R, Side: L R, LFE
Sampling rate                            : 48.0 KHz
Frame rate                               : 31.250 fps (1536 spf)
Compression mode                         : Lossy
Stream size                              : 282 MiB (9%)
Title                                    : Sky.2015.720p.WEB-DL.DD5.1.H264-FGT
Language                                 : English
Default                                  : Yes
Forced                                   : No

Text #1
ID                                       : 3
Format                                   : UTF-8
Codec ID                                 : S_TEXT/UTF8
Codec ID/Info                            : UTF-8 Plain Text
Title                                    : FORCED
Language                                 : English
Default                                  : Yes
Forced                                   : Yes

Text #2
ID                                       : 4
Format                                   : UTF-8
Codec ID                                 : S_TEXT/UTF8
Codec ID/Info                            : UTF-8 Plain Text
Language                                 : English
Default                                  : No
Forced                                   : No

Menu
00:00:00.000                             : en:1
00:12:46.000                             : en:2
00:22:54.000                             : en:3
00:35:01.000                             : en:4
00:44:37.000                             : en:5
00:55:16.000                             : en:6
01:07:05.000                             : en:7
01:18:22.000                             : en:8
01:30:27.000                             : en:9
01:38:26.000                             : en:10

[/mediainfo]



This NFO File was rendered by NFOmation.net


Bookmark and Share

<Mascot>
[ Sitemap ]

aa21