NFOmation.net - Your Ultimate NFO Upload Resource! Viewing NFO file: X-Men.Apocalypse.2016.1080p.HC.WEBRip.x264.AAC2.0-STUTTERSHIT.nfo X-Men.Apocalypse.2016.1080p.HC.WEBRip.x264.AAC2.0-STUTTERSHIT

http://imagecurl.com/images/ >>
0825484735218198773_thumb.png
http://imagecurl.com/images/ >>
4552855652692781069_thumb.png
http://imagecurl.com/images/ >>
0342269270420842979_thumb.png
http://imagecurl.com/images/ >>
6732102497377048943_thumb.png
http://imagecurl.com/images/ >>
3399656978529240183_thumb.png
http://imagecurl.com/images/ >>
5087504808096317971_thumb.png

[mediainfo]
Video
ID                                       : 1
Format                                   : AVC
Format/Info                              : Advanced Video Codec
Format profile                           : High@L4
Format settings, CABAC                   : Yes
Format settings, ReFrames                : 3 frames
Codec ID                                 : avc1
Codec ID/Info                            : Advanced Video Coding
Duration                                 : 2h 18mn
Bit rate mode                            : Variable
Bit rate                                 : 2 173 Kbps
Maximum bit rate                         : 40.0 Mbps
Width                                    : 1 920 pixels
Height                                   : 800 pixels
Display aspect ratio                     : 2.40:1
Frame rate mode                          : Constant
Frame rate                               : 25.000 fps
Color space                              : YUV
Chroma subsampling                       : 4:2:0
Bit depth                                : 8 bits
Scan type                                : Progressive
Bits/(Pixel*Frame)                       : 0.057
Stream size                              : 2.10 GiB (90%)
Title                                    : X-Men.Apocalypse.2016.1080p.HC.WEBRip.x264.AAC2.0-STUTTERSHIT
Color range                              : Limited
Color primaries                          : BT.709
Transfer characteristics                 : BT.709
Matrix coefficients                      : BT.709

Audio
ID                                       : 2
Format                                   : AAC
Format/Info                              : Advanced Audio Codec
Format profile                           : LC
Codec ID                                 : 40
Duration                                 : 2h 18mn
Bit rate mode                            : Constant
Bit rate                                 : 224 Kbps
Channel(s)                               : 2 channels
Channel positions                        : Front: L R
Sampling rate                            : 44.1 KHz
Frame rate                               : 43.066 fps (1024 spf)
Compression mode                         : Lossy
Stream size                              : 221 MiB (9%)
Title                                    : X-Men.Apocalypse.2016.1080p.HC.WEBRip.x264.AAC2.0-STUTTERSHIT
Default                                  : Yes
Alternate group                          : 1

[/mediainfo]



This NFO File was rendered by NFOmation.net

http://imagecurl.com/images/ >>
0825484735218198773_thumb.png
http://imagecurl.com/images/ >>
4552855652692781069_thumb.png
http://imagecurl.com/images/ >>
0342269270420842979_thumb.png
http://imagecurl.com/images/ >>
6732102497377048943_thumb.png
http://imagecurl.com/images/ >>
3399656978529240183_thumb.png
http://imagecurl.com/images/ >>
5087504808096317971_thumb.png

[mediainfo]
Video
ID                                       : 1
Format                                   : AVC
Format/Info                              : Advanced Video Codec
Format profile                           : High@L4
Format settings, CABAC                   : Yes
Format settings, ReFrames                : 3 frames
Codec ID                                 : avc1
Codec ID/Info                            : Advanced Video Coding
Duration                                 : 2h 18mn
Bit rate mode                            : Variable
Bit rate                                 : 2 173 Kbps
Maximum bit rate                         : 40.0 Mbps
Width                                    : 1 920 pixels
Height                                   : 800 pixels
Display aspect ratio                     : 2.40:1
Frame rate mode                          : Constant
Frame rate                               : 25.000 fps
Color space                              : YUV
Chroma subsampling                       : 4:2:0
Bit depth                                : 8 bits
Scan type                                : Progressive
Bits/(Pixel*Frame)                       : 0.057
Stream size                              : 2.10 GiB (90%)
Title                                    : X-Men.Apocalypse.2016.1080p.HC.WEBRip.x264.AAC2.0-STUTTERSHIT
Color range                              : Limited
Color primaries                          : BT.709
Transfer characteristics                 : BT.709
Matrix coefficients                      : BT.709

Audio
ID                                       : 2
Format                                   : AAC
Format/Info                              : Advanced Audio Codec
Format profile                           : LC
Codec ID                                 : 40
Duration                                 : 2h 18mn
Bit rate mode                            : Constant
Bit rate                                 : 224 Kbps
Channel(s)                               : 2 channels
Channel positions                        : Front: L R
Sampling rate                            : 44.1 KHz
Frame rate                               : 43.066 fps (1024 spf)
Compression mode                         : Lossy
Stream size                              : 221 MiB (9%)
Title                                    : X-Men.Apocalypse.2016.1080p.HC.WEBRip.x264.AAC2.0-STUTTERSHIT
Default                                  : Yes
Alternate group                          : 1

[/mediainfo]



This NFO File was rendered by NFOmation.net


Bookmark and Share

<Mascot>
[ Sitemap ]

aa21