NFOmation.net - Your Ultimate NFO Upload Resource! Viewing NFO file: The.Intent.2016.WEB-DL.XviD.MP3-FGT.nfo The.Intent.2016.WEB-DL.XviD.MP3-FGT

http://imagecurl.com/images/ >>
3672626696493065678_thumb.png
http://imagecurl.com/images/ >>
6616955253193636612_thumb.png
http://imagecurl.com/images/ >>
2394982879810379461_thumb.png
http://imagecurl.com/images/ >>
0202113680770608446_thumb.png
http://imagecurl.com/images/ >>
7029813657169788375_thumb.png
http://imagecurl.com/images/ >>
5975422963805976860_thumb.png

[mediainfo]
Video
ID                                       : 0
Format                                   : MPEG-4 Visual
Format profile                           : Simple@L5
Format settings, BVOP                    : No
Format settings, QPel                    : No
Format settings, GMC                     : No warppoints
Format settings, Matrix                  : Default (H.263)
Codec ID                                 : XVID
Codec ID/Hint                            : XviD
Duration                                 : 1h 39mn
Bit rate                                 : 1 517 Kbps
Width                                    : 720 pixels
Height                                   : 320 pixels
Display aspect ratio                     : 2.228
Frame rate                               : 25.000 fps
Color space                              : YUV
Chroma subsampling                       : 4:2:0
Bit depth                                : 8 bits
Scan type                                : Progressive
Compression mode                         : Lossy
Bits/(Pixel*Frame)                       : 0.263
Stream size                              : 1.05 GiB (88%)
Writing library                          : Lavc57.16.101

Audio
ID                                       : 1
Format                                   : MPEG Audio
Format version                           : Version 1
Format profile                           : Layer 3
Mode                                     : Joint stereo
Mode extension                           : MS Stereo
Codec ID                                 : 55
Codec ID/Hint                            : MP3
Duration                                 : 1h 39mn
Bit rate mode                            : Constant
Bit rate                                 : 192 Kbps
Channel(s)                               : 2 channels
Sampling rate                            : 48.0 KHz
Compression mode                         : Lossy
Stream size                              : 137 MiB (11%)
Alignment                                : Aligned on interleaves
Interleave, duration                     : 24 ms (0.60 video frame)
Interleave, preload duration             : 504 ms
Writing library                          : LAME3.99.5

[/mediainfo]



This NFO File was rendered by NFOmation.net

http://imagecurl.com/images/ >>
3672626696493065678_thumb.png
http://imagecurl.com/images/ >>
6616955253193636612_thumb.png
http://imagecurl.com/images/ >>
2394982879810379461_thumb.png
http://imagecurl.com/images/ >>
0202113680770608446_thumb.png
http://imagecurl.com/images/ >>
7029813657169788375_thumb.png
http://imagecurl.com/images/ >>
5975422963805976860_thumb.png

[mediainfo]
Video
ID                                       : 0
Format                                   : MPEG-4 Visual
Format profile                           : Simple@L5
Format settings, BVOP                    : No
Format settings, QPel                    : No
Format settings, GMC                     : No warppoints
Format settings, Matrix                  : Default (H.263)
Codec ID                                 : XVID
Codec ID/Hint                            : XviD
Duration                                 : 1h 39mn
Bit rate                                 : 1 517 Kbps
Width                                    : 720 pixels
Height                                   : 320 pixels
Display aspect ratio                     : 2.228
Frame rate                               : 25.000 fps
Color space                              : YUV
Chroma subsampling                       : 4:2:0
Bit depth                                : 8 bits
Scan type                                : Progressive
Compression mode                         : Lossy
Bits/(Pixel*Frame)                       : 0.263
Stream size                              : 1.05 GiB (88%)
Writing library                          : Lavc57.16.101

Audio
ID                                       : 1
Format                                   : MPEG Audio
Format version                           : Version 1
Format profile                           : Layer 3
Mode                                     : Joint stereo
Mode extension                           : MS Stereo
Codec ID                                 : 55
Codec ID/Hint                            : MP3
Duration                                 : 1h 39mn
Bit rate mode                            : Constant
Bit rate                                 : 192 Kbps
Channel(s)                               : 2 channels
Sampling rate                            : 48.0 KHz
Compression mode                         : Lossy
Stream size                              : 137 MiB (11%)
Alignment                                : Aligned on interleaves
Interleave, duration                     : 24 ms (0.60 video frame)
Interleave, preload duration             : 504 ms
Writing library                          : LAME3.99.5

[/mediainfo]



This NFO File was rendered by NFOmation.net


Bookmark and Share

<Mascot>
[ Sitemap ]

aa21