NFOmation.net - Your Ultimate NFO Upload Resource! Viewing NFO file: Train.To.Busan.2016.KOREAN.720p.WEBRip.x264.AAC2.0-FGT.nfo Train.To.Busan.2016.KOREAN.720p.WEBRip.x264.AAC2.0-FGT

http://imagecurl.com/images/ >>
0949079529245660572_thumb.png
http://imagecurl.com/images/ >>
5291511960449275429_thumb.png
http://imagecurl.com/images/ >>
5515740261733190397_thumb.png
http://imagecurl.com/images/ >>
6979541564346063189_thumb.png
http://imagecurl.com/images/ >>
5491911142750024196_thumb.png
http://imagecurl.com/images/ >>
1540082335643794411_thumb.png

[mediainfo]
Video
ID                                       : 1
Format                                   : AVC
Format/Info                              : Advanced Video Codec
Format profile                           : Baseline@L3
Format settings, CABAC                   : No
Format settings, ReFrames                : 1 frame
Codec ID                                 : avc1
Codec ID/Info                            : Advanced Video Coding
Duration                                 : 1h 58mn
Bit rate                                 : 3 000 Kbps
Width                                    : 1 280 pixels
Height                                   : 720 pixels
Display aspect ratio                     : 16:9
Frame rate mode                          : Constant
Frame rate                               : 29.970 (29970/1000) fps
Color space                              : YUV
Chroma subsampling                       : 4:2:0
Bit depth                                : 8 bits
Scan type                                : Progressive
Bits/(Pixel*Frame)                       : 0.109
Stream size                              : 2.47 GiB (93%)
Title                                    : Train.To.Busan.2016.KOREAN.720p.WEBRip.x264.AAC2.0-FGT
Writing library                          : x264 core 116 r2074 2641b9e
Encoding settings                        : cabac=0 / ref=1 / deblock=1:0:0 / analyse=0x1:0x131 / me=dia >>
/ subme=3 / psy=1 / psy_rd=1.00:0.00 / mixed_ref=0 / me_range=16 / chroma_me=1 / trellis=1 / 8x8dct=0 >>
/ cqm=0 / deadzone=21,11 / fast_pskip=1 / chroma_qp_offset=0 / threads=24 / sliced_threads=0 / nr=0 / >>
decimate=1 / interlaced=0 / bluray_compat=0 / constrained_intra=0 / bframes=0 / weightp=0 / >>
keyint=30 / keyint_min=16 / scenecut=40 / intra_refresh=0 / rc_lookahead=30 / rc=abr / mbtree=1 / >>
bitrate=3000 / ratetol=1.0 / qcomp=0.60 / qpmin=1 / qpmax=51 / qpstep=4 / ip_ratio=1.40 / aq=1:1.00

Audio
ID                                       : 2
Format                                   : AAC
Format/Info                              : Advanced Audio Codec
Format profile                           : LC
Codec ID                                 : 40
Duration                                 : 1h 58mn
Bit rate mode                            : Constant
Bit rate                                 : 224 Kbps
Channel(s)                               : 2 channels
Channel positions                        : Front: L R
Sampling rate                            : 44.1 KHz
Frame rate                               : 43.066 fps (1024 spf)
Compression mode                         : Lossy
Stream size                              : 189 MiB (7%)
Title                                    : Train.To.Busan.2016.KOREAN.720p.WEBRip.x264.AAC2.0-FGT
Default                                  : Yes
Alternate group                          : 1

[/mediainfo]



This NFO File was rendered by NFOmation.net

http://imagecurl.com/images/ >>
0949079529245660572_thumb.png
http://imagecurl.com/images/ >>
5291511960449275429_thumb.png
http://imagecurl.com/images/ >>
5515740261733190397_thumb.png
http://imagecurl.com/images/ >>
6979541564346063189_thumb.png
http://imagecurl.com/images/ >>
5491911142750024196_thumb.png
http://imagecurl.com/images/ >>
1540082335643794411_thumb.png

[mediainfo]
Video
ID                                       : 1
Format                                   : AVC
Format/Info                              : Advanced Video Codec
Format profile                           : Baseline@L3
Format settings, CABAC                   : No
Format settings, ReFrames                : 1 frame
Codec ID                                 : avc1
Codec ID/Info                            : Advanced Video Coding
Duration                                 : 1h 58mn
Bit rate                                 : 3 000 Kbps
Width                                    : 1 280 pixels
Height                                   : 720 pixels
Display aspect ratio                     : 16:9
Frame rate mode                          : Constant
Frame rate                               : 29.970 (29970/1000) fps
Color space                              : YUV
Chroma subsampling                       : 4:2:0
Bit depth                                : 8 bits
Scan type                                : Progressive
Bits/(Pixel*Frame)                       : 0.109
Stream size                              : 2.47 GiB (93%)
Title                                    : Train.To.Busan.2016.KOREAN.720p.WEBRip.x264.AAC2.0-FGT
Writing library                          : x264 core 116 r2074 2641b9e
Encoding settings                        : cabac=0 / ref=1 / deblock=1:0:0 / analyse=0x1:0x131 / me=dia >>
/ subme=3 / psy=1 / psy_rd=1.00:0.00 / mixed_ref=0 / me_range=16 / chroma_me=1 / trellis=1 / 8x8dct=0 >>
/ cqm=0 / deadzone=21,11 / fast_pskip=1 / chroma_qp_offset=0 / threads=24 / sliced_threads=0 / nr=0 / >>
decimate=1 / interlaced=0 / bluray_compat=0 / constrained_intra=0 / bframes=0 / weightp=0 / >>
keyint=30 / keyint_min=16 / scenecut=40 / intra_refresh=0 / rc_lookahead=30 / rc=abr / mbtree=1 / >>
bitrate=3000 / ratetol=1.0 / qcomp=0.60 / qpmin=1 / qpmax=51 / qpstep=4 / ip_ratio=1.40 / aq=1:1.00

Audio
ID                                       : 2
Format                                   : AAC
Format/Info                              : Advanced Audio Codec
Format profile                           : LC
Codec ID                                 : 40
Duration                                 : 1h 58mn
Bit rate mode                            : Constant
Bit rate                                 : 224 Kbps
Channel(s)                               : 2 channels
Channel positions                        : Front: L R
Sampling rate                            : 44.1 KHz
Frame rate                               : 43.066 fps (1024 spf)
Compression mode                         : Lossy
Stream size                              : 189 MiB (7%)
Title                                    : Train.To.Busan.2016.KOREAN.720p.WEBRip.x264.AAC2.0-FGT
Default                                  : Yes
Alternate group                          : 1

[/mediainfo]



This NFO File was rendered by NFOmation.net


Bookmark and Share

<Mascot>
[ Sitemap ]

aa21