NFOmation.net - Your Ultimate NFO Upload Resource! Viewing NFO file: Come.and.Find.Me.2016.1080p.WEB-DL.DD5.1.H264-FGT.nfo Come.and.Find.Me.2016.1080p.WEB-DL.DD5.1.H264-FGT

http://imagecurl.com/images/ >>
8441923758525727244_thumb.png
http://imagecurl.com/images/ >>
4738577214828493433_thumb.png
http://imagecurl.com/images/ >>
4947108976661980229_thumb.png
http://imagecurl.com/images/ >>
8701748902330887384_thumb.png
http://imagecurl.com/images/ >>
1688207068428730952_thumb.png
http://imagecurl.com/images/ >>
9832014834040123202_thumb.png

[mediainfo]
Video
ID                                       : 1
Format                                   : AVC
Format/Info                              : Advanced Video Codec
Format profile                           : High@L4
Format settings, CABAC                   : Yes
Format settings, ReFrames                : 5 frames
Codec ID                                 : V_MPEG4/ISO/AVC
Duration                                 : 1h 52mn
Bit rate                                 : 4 472 Kbps
Width                                    : 1 912 pixels
Height                                   : 796 pixels
Display aspect ratio                     : 2.40:1
Frame rate mode                          : Constant
Frame rate                               : 23.976 (24000/1001) fps
Color space                              : YUV
Chroma subsampling                       : 4:2:0
Bit depth                                : 8 bits
Scan type                                : Progressive
Bits/(Pixel*Frame)                       : 0.123
Stream size                              : 3.50 GiB (90%)
Title                                    : Come.and.Find.Me.2016.1080p.WEB-DL.DD5.1.H264-FGT
Language                                 : English
Default                                  : Yes
Forced                                   : No
Color range                              : Limited
Color primaries                          : BT.709
Transfer characteristics                 : BT.709
Matrix coefficients                      : BT.709

Audio
ID                                       : 2
Format                                   : AC-3
Format/Info                              : Audio Coding 3
Mode extension                           : CM (complete main)
Format settings, Endianness              : Big
Codec ID                                 : A_AC3
Duration                                 : 1h 52mn
Bit rate mode                            : Constant
Bit rate                                 : 384 Kbps
Channel(s)                               : 6 channels
Channel positions                        : Front: L C R, Side: L R, LFE
Sampling rate                            : 48.0 KHz
Frame rate                               : 31.250 fps (1536 spf)
Compression mode                         : Lossy
Stream size                              : 308 MiB (8%)
Title                                    : Come.and.Find.Me.2016.1080p.WEB-DL.DD5.1.H264-FGT
Language                                 : English
Default                                  : Yes
Forced                                   : No

Text
ID                                       : 3
Format                                   : UTF-8
Codec ID                                 : S_TEXT/UTF8
Codec ID/Info                            : UTF-8 Plain Text
Language                                 : English
Default                                  : Yes
Forced                                   : No

Menu
00:00:00.000                             : en:1
00:10:26.000                             : en:2
00:21:17.000                             : en:3
00:31:41.000                             : en:4
00:40:13.000                             : en:5
00:51:13.000                             : en:6
01:02:03.000                             : en:7
01:14:57.000                             : en:8
01:24:28.000                             : en:9
01:34:11.000                             : en:10
01:47:21.000                             : en:11

[/mediainfo]



This NFO File was rendered by NFOmation.net

http://imagecurl.com/images/ >>
8441923758525727244_thumb.png
http://imagecurl.com/images/ >>
4738577214828493433_thumb.png
http://imagecurl.com/images/ >>
4947108976661980229_thumb.png
http://imagecurl.com/images/ >>
8701748902330887384_thumb.png
http://imagecurl.com/images/ >>
1688207068428730952_thumb.png
http://imagecurl.com/images/ >>
9832014834040123202_thumb.png

[mediainfo]
Video
ID                                       : 1
Format                                   : AVC
Format/Info                              : Advanced Video Codec
Format profile                           : High@L4
Format settings, CABAC                   : Yes
Format settings, ReFrames                : 5 frames
Codec ID                                 : V_MPEG4/ISO/AVC
Duration                                 : 1h 52mn
Bit rate                                 : 4 472 Kbps
Width                                    : 1 912 pixels
Height                                   : 796 pixels
Display aspect ratio                     : 2.40:1
Frame rate mode                          : Constant
Frame rate                               : 23.976 (24000/1001) fps
Color space                              : YUV
Chroma subsampling                       : 4:2:0
Bit depth                                : 8 bits
Scan type                                : Progressive
Bits/(Pixel*Frame)                       : 0.123
Stream size                              : 3.50 GiB (90%)
Title                                    : Come.and.Find.Me.2016.1080p.WEB-DL.DD5.1.H264-FGT
Language                                 : English
Default                                  : Yes
Forced                                   : No
Color range                              : Limited
Color primaries                          : BT.709
Transfer characteristics                 : BT.709
Matrix coefficients                      : BT.709

Audio
ID                                       : 2
Format                                   : AC-3
Format/Info                              : Audio Coding 3
Mode extension                           : CM (complete main)
Format settings, Endianness              : Big
Codec ID                                 : A_AC3
Duration                                 : 1h 52mn
Bit rate mode                            : Constant
Bit rate                                 : 384 Kbps
Channel(s)                               : 6 channels
Channel positions                        : Front: L C R, Side: L R, LFE
Sampling rate                            : 48.0 KHz
Frame rate                               : 31.250 fps (1536 spf)
Compression mode                         : Lossy
Stream size                              : 308 MiB (8%)
Title                                    : Come.and.Find.Me.2016.1080p.WEB-DL.DD5.1.H264-FGT
Language                                 : English
Default                                  : Yes
Forced                                   : No

Text
ID                                       : 3
Format                                   : UTF-8
Codec ID                                 : S_TEXT/UTF8
Codec ID/Info                            : UTF-8 Plain Text
Language                                 : English
Default                                  : Yes
Forced                                   : No

Menu
00:00:00.000                             : en:1
00:10:26.000                             : en:2
00:21:17.000                             : en:3
00:31:41.000                             : en:4
00:40:13.000                             : en:5
00:51:13.000                             : en:6
01:02:03.000                             : en:7
01:14:57.000                             : en:8
01:24:28.000                             : en:9
01:34:11.000                             : en:10
01:47:21.000                             : en:11

[/mediainfo]



This NFO File was rendered by NFOmation.net


Bookmark and Share

<Mascot>
[ Sitemap ]

aa21