NFOmation.net - Your Ultimate NFO Upload Resource! Viewing NFO file: Max.Steel.2016.HC.HDCAM.XviD-UnKnOwN.nfo Max.Steel.2016.HC.HDCAM.XviD-UnKnOwN

╔═──────────────────────────────═══════════════───────────────────────────────═╗
║                                                                              ║
║ :::  :::    :::::    :::     :::   :::::      :::    :::     :::    :::::    ║
║ :::  :::   :::::::   :::    :::   :::::::    :::::   :::     :::   :::::::   ║
║ :::  :::  :::::::::  :::   :::   :::::::::  ::: :::  :::     :::  :::::::::  ║
║ :::  :::  :::   :::  :::  :::    :::   :::  ::: :::  :::     :::  :::   :::  ║
║ :::  :::  :::   :::  :::::::     :::   :::  ::: :::  :::     :::  :::   :::  ║
║ :::  :::  :::   :::  ::::::      :::   :::  ::: :::  :::  :  :::  :::   :::  ║
║ :::  :::  :::   :::  :::::::     :::   :::  ::: :::  ::: ::: :::  :::   :::  ║
║ :::  :::  :::   :::  :::  :::    :::   :::  ::: :::  ::: : : :::  :::   :::  ║
║ :::..:::  :::   :::  :::   :::   :::   :::  ::: :::  ::::: :::::  :::   :::  ║
║  ::::::   :::   :::  :::    :::  :::   :::   :::::   ::::: :::::  :::   :::  ║
║   ::::    :::   :::  :::     ::: :::   :::    :::    ::::   ::::  :::   :::  ║
╠═──────────────────────────────═══════════════───────────────────────────────═╣
║                                                                              ║
│╨ ╨ ╨ ╨ ╨ ╨ ╨ ╨ ╨ ╨ ╨ ╨ ╨ ╨ ╨ ╨ ╨  NOTES  ╨ ╨ ╨ ╨ ╨ ╨ ╨ ╨ ╨ ╨ ╨ ╨ ╨ ╨ ╨ ╨ ╨ ╨ │
│                                                                              │
│╨ ╨ ╨ ╨ ╨ ╨ ╨ ╨ ╨ ╨ ╨ ╨ ╨ ╨ ╨ ╨ ╨  NOTES  ╨ ╨ ╨ ╨ ╨ ╨ ╨ ╨ ╨ ╨ ╨ ╨ ╨ ╨ ╨ ╨ ╨ ╨ │
│                                                                              │
│                   Max Steel 2016 HC HDCAM UnKnOwN                            │
│                                                                              │
│ Encoded By .......:UnKnOwN                                                   │
│ Runtime ..........:1:23:38                                                   │
│ IMDb URL .........: http://www.imdb.com/title/tt1472584/                     │
│ Language .........:English                                                   │
│ File Size ........: 1.72 Gb                                                  │
│ Release Date ......... 2016                                                  │
│ Source       Mr.Miyagi                                                       │
│ File Type    ......... AVI                                                   │
│ Genre        .......... Action, Adventure, Family                            │
│                                                                              │
│                                                                              │
│                                                                              │
│                                                                              │
│ Video                                                                        │
│ ID                                       : 0                                 │
│ Format                                   : MPEG-4 Visual                     │
│ Format profile                           : Advanced Simple@L4                │
│ Format settings, BVOP                    : 2                                 │
│ Format settings, QPel                    : No                                │
│ Format settings, GMC                     : No warppoints                     │
│ Format settings, Matrix                  : Default (H.263)                   │
│ Codec ID                                 : DIVX                              │
│ Codec ID/Info                            : Project Mayo                      │
│ Codec ID/Hint                            : DivX 4                            │
│ Duration                                 : 1 h 23 min                        │
│ Bit rate                                 : 2 743 kb/s                        │
│ Width                                    : 1 280 pixels                      │
│ Height                                   : 504 pixels                        │
│ Display aspect ratio                     : 2.540                             │
│ Frame rate                               : 25.000 FPS                        │
│ Color space                              : YUV                               │
│ Chroma subsampling                       : 4:2:0                             │
│ Bit depth                                : 8 bits                            │
│ Scan type                                : Progressive                       │
│ Compression mode                         : Lossy                             │
│ Bits/(Pixel*Frame)                       : 0.170                             │
│ Stream size                              : 1.60 GiB (93%)                    │
│ Writing library                          : XviD 64                           │
│                                                                              │
│ Audio                                                                        │
│ ID                                       : 1                                 │
│ Format                                   : AAC                               │
│ Format/Info                              : Advanced Audio Codec              │
│ Format profile                           : LC                                │
│ Codec ID                                 : FF                                │
│ Source duration                          : 2 h 5 min                         │
│ Bit rate                                 : 128 kb/s                          │
│ Channel(s)                               : 2 channels                        │
│ Channel positions                        : Front: L R                        │
│ Sampling rate                            : 44.1 kHz                          │
│ Frame rate                               : 43.066 FPS (1024 spf)             │
│ Compression mode                         : Lossy                             │
│ Stream size                              : 115 MiB (7%)                      │
│ Alignment                                : Split accross interleaves         │
│ Interleave, duration                     : 23  ms (0.58 video frame)         │
│                                                                              │
│                                                                              │
│                                                                              │
│                                                                              │
│                                                                              │
│                 CHINESE HARDCODED                                            │
│                                                                              │
│                                                                              │
│                                                                              │
│                                                                              │
│                                                                              │
│                                                                              │
│                                                                              │
│                                                                              │
│                                                                              │
│                                                                              │
│                                                                              │
│                                                                              │
│                     Plot:                                                    │
│                   Check Imdb                                                 │
│                                                                              │
│                                                                              │
│                                                                              │
│                             RELEASE INFO                                     │
│                                                                              │
│                                                                              │
│                              Woot                                            │
│                                                                              │
╚══════════════════════════════════════════════════════════════════════════════╝
╔═╦═══════╗        ╔─╦──╦───╦────╦═───═╦═───═╦────╦───╦──╦─╗         ╔═══════╦═╗
╚╬╝       ╚─═════─═╝═╩══╩═══╩════╩═════╩═════╩════╩═══╩══╩═╚═─═════─═╝       ╚╬╝
 ║                                                                            ║
 ║                                LOOKING FOR                                 ║
 ║ Supplier                                                                   ║
 ║     ________                                                               ║
 ║                                                                            ║
 ║   Cammer wanted                                                            ║
 ║                                                                            ║
 ║  Unrelease Cam/TS/itunes movie/WEB-DL/Screener/DVD/Blueray                 ║
 ║   Uk and US cammers wanted                                                 ║
 ║   Need suppliers for audio and video                                       ║
 ║   and people who are good in searching shit from net                       ║
 ║                                                                            ║
 ║          UnKnOwN is back recruiting,if you have anything email us.         ║
 ║                                                                            ║
 ║                         unknownreleasegroup@gmail.com                      ║
 ║                                                                            ║
 ║                                                                            ║
╔╬╦══════════════════════════════════════════════════════════════════════════╦╬╗
╚╦╝ ╨ ╨ ╨ ╨ ╨ ╨ ╨ ╨ ╨ ╨ ╨ ╨ ╨ ╨ GREETZ & RESPECT ╨ ╨ ╨ ╨  ╨ ╨ ╨ ╨ ╨ ╨ ╨ ╨ ╨ ╨╚╦╝
 ╚═══════════════════════╦══════════════════════════════╦═════════════════════╝
                         ║ NOBODY YET WILL LET YOU KNOW ║
                         ║                              ║
                         ║ MORE GOODIES COMING REAL SOON║
                         ╚══════════════════════════════╝



This NFO File was rendered by NFOmation.net

ÉÍÄÄÄÄÄÄÄÄÄÄÄÄÄÄÄÄÄÄÄÄÄÄÄÄÄÄÄÄÄÄÍÍÍÍÍÍÍÍÍÍÍÍÍÍÍÄÄÄÄÄÄÄÄÄÄÄÄÄÄÄÄÄÄÄÄÄÄÄÄÄÄÄÄÄÄÄÍ»
º                                      ÿ                                       º
º :::  :::ÿ  ÿ:::::  ÿÿ:::ÿ   ÿ:::   :::::    ÿÿ:::ÿÿÿ :::     :::    :::::    º
º :::  :::ÿ  :::::::ÿÿÿ:::ÿ  ÿ:::   :::::::    :::::ÿÿ :::     :::   :::::::   º
º :::  :::ÿÿ:::::::::ÿÿ:::ÿÿÿ:::ÿÿÿ:::::::::ÿ ::: ::: ÿ:::     :::  :::::::::  º
º :::  ::: ÿ:::ÿÿÿ:::ÿÿ:::ÿÿ:::ÿ ÿÿ:::ÿÿÿ::: ÿ::: ::: ÿ:::     :::  :::ÿÿÿ:::  º
º :::  ::: ÿ:::ÿ ÿ:::ÿÿ:::::::ÿÿ ÿÿ:::  ÿ::: ÿ::: :::  :::     :::  :::ÿ ÿ:::  º
º :::  ::: ÿ:::ÿ ÿ:::ÿÿ::::::ÿÿ  ÿÿ:::  ÿ::: ÿ::: :::  :::  :  :::  :::ÿ ÿ:::  º
º :::  ::: ÿ:::ÿ ÿ:::ÿÿ:::::::ÿÿ ÿÿ:::  ÿ::: ÿ::: :::  ::: ::: :::  :::ÿ ÿ:::  º
º :::  ::: ÿ:::ÿ ÿ:::ÿÿ:::ÿÿ:::ÿÿÿÿ:::  ÿ::: ÿ::: :::  ::: : : :::  :::ÿ ÿ:::  º
º :::..::: ÿ:::ÿ ÿ:::ÿÿ:::ÿ ÿ:::ÿÿÿ:::  ÿ::: ÿ::: :::  ::::: :::::  :::ÿ ÿ:::  º
º ÿ::::::ÿÿÿ:::ÿ ÿ:::ÿÿ:::ÿ ÿÿ:::ÿÿ:::  ÿ::: ÿÿ:::::ÿÿ ::::: :::::  :::ÿ ÿ:::  º
º  ÿ::::ÿ  ÿ:::ÿ ÿ:::ÿÿ:::ÿ  ÿÿ:::ÿ:::  ÿ::: ÿÿÿ:::ÿÿ  ::::   ::::  :::ÿ ÿ:::  º
ÌÍÄÄÄÄÄÄÄÄÄÄÄÄÄÄÄÄÄÄÄÄÄÄÄÄÄÄÄÄÄÄÍÍÍÍÍÍÍÍÍÍÍÍÍÍÍÄÄÄÄÄÄÄÄÄÄÄÄÄÄÄÄÄÄÄÄÄÄÄÄÄÄÄÄÄÄÄ͹
º                                                                              º
³Ð Ð Ð Ð Ð Ð Ð Ð Ð Ð Ð Ð Ð Ð Ð Ð Ð  NOTES  Ð Ð Ð Ð Ð Ð Ð Ð Ð Ð Ð Ð Ð Ð Ð Ð Ð Ð ³
³                                                                              ³
³Ð Ð Ð Ð Ð Ð Ð Ð Ð Ð Ð Ð Ð Ð Ð Ð Ð  NOTES  Ð Ð Ð Ð Ð Ð Ð Ð Ð Ð Ð Ð Ð Ð Ð Ð Ð Ð ³
³                                                                              ³
³                   Max Steel 2016 HC HDCAM UnKnOwN                            ³
³                                                                              ³
³ Encoded By .......:UnKnOwN                                                   ³
³ Runtime ..........:1:23:38                                                   ³
³ IMDb URL .........: http://www.imdb.com/title/tt1472584/                     ³
³ Language .........:English                                                   ³
³ File Size ........: 1.72 Gb                                                  ³
³ Release Date ......... 2016                                                  ³
³ Source       Mr.Miyagi                                                       ³
³ File Type    ......... AVI                                                   ³
³ Genre        .......... Action, Adventure, Family                            ³
³                                                                              ³
³                                                                              ³
³                                                                              ³
³                                                                              ³
³ Video                                                                        ³
³ ID                                       : 0                                 ³
³ Format                                   : MPEG-4 Visual                     ³
³ Format profile                           : Advanced Simple@L4                ³
³ Format settings, BVOP                    : 2                                 ³
³ Format settings, QPel                    : No                                ³
³ Format settings, GMC                     : No warppoints                     ³
³ Format settings, Matrix                  : Default (H.263)                   ³
³ Codec ID                                 : DIVX                              ³
³ Codec ID/Info                            : Project Mayo                      ³
³ Codec ID/Hint                            : DivX 4                            ³
³ Duration                                 : 1 h 23 min                        ³
³ Bit rate                                 : 2 743 kb/s                        ³
³ Width                                    : 1 280 pixels                      ³
³ Height                                   : 504 pixels                        ³
³ Display aspect ratio                     : 2.540                             ³
³ Frame rate                               : 25.000 FPS                        ³
³ Color space                              : YUV                               ³
³ Chroma subsampling                       : 4:2:0                             ³
³ Bit depth                                : 8 bits                            ³
³ Scan type                                : Progressive                       ³
³ Compression mode                         : Lossy                             ³
³ Bits/(Pixel*Frame)                       : 0.170                             ³
³ Stream size                              : 1.60 GiB (93%)                    ³
³ Writing library                          : XviD 64                           ³
³                                                                              ³
³ Audio                                                                        ³
³ ID                                       : 1                                 ³
³ Format                                   : AAC                               ³
³ Format/Info                              : Advanced Audio Codec              ³
³ Format profile                           : LC                                ³
³ Codec ID                                 : FF                                ³
³ Source duration                          : 2 h 5 min                         ³
³ Bit rate                                 : 128 kb/s                          ³
³ Channel(s)                               : 2 channels                        ³
³ Channel positions                        : Front: L R                        ³
³ Sampling rate                            : 44.1 kHz                          ³
³ Frame rate                               : 43.066 FPS (1024 spf)             ³
³ Compression mode                         : Lossy                             ³
³ Stream size                              : 115 MiB (7%)                      ³
³ Alignment                                : Split accross interleaves         ³
³ Interleave, duration                     : 23  ms (0.58 video frame)         ³
³                                                                              ³
³                                                                              ³
³                                                                              ³
³                                                                              ³
³                                                                              ³
³                 CHINESE HARDCODED                                            ³
³                                                                              ³
³                                                                              ³
³                                                                              ³
³                                                                              ³
³                                                                              ³
³                                                                              ³
³                                                                              ³
³                                                                              ³
³                                                                              ³
³                                                                              ³
³                                                                              ³
³                                                                              ³
³                     Plot:                                                    ³
³                   Check Imdb                                                 ³
³                                                                              ³
³                                                                              ³
³                                                                              ³
³                             RELEASE INFO                                     ³
³                                                                              ³
³                                                                              ³
³                              Woot                                            ³
³                                                                              ³
ÈÍÍÍÍÍÍÍÍÍÍÍÍÍÍÍÍÍÍÍÍÍÍÍÍÍÍÍÍÍÍÍÍÍÍÍÍÍÍÍÍÍÍÍÍÍÍÍÍÍÍÍÍÍÍÍÍÍÍÍÍÍÍÍÍÍÍÍÍÍÍÍÍÍÍÍÍÍͼ
ÉÍËÍÍÍÍÍÍÍ»        ÉÄËÄÄËÄÄÄËÄÄÄÄËÍÄÄÄÍËÍÄÄÄÍËÄÄÄÄËÄÄÄËÄÄËÄ»         ÉÍÍÍÍÍÍÍËÍ»
Èμ       ÈÄÍÍÍÍÍÄͼÍÊÍÍÊÍÍÍÊÍÍÍÍÊÍÍÍÍÍÊÍÍÍÍÍÊÍÍÍÍÊÍÍÍÊÍÍÊÍÈÍÄÍÍÍÍÍÄͼ       Èμ
 º                                                                            º
 º                                LOOKING FOR                                 º
 º Supplier                                                                   º
 º     ________                                                               º
 º                                                                            º
 º   Cammer wanted                                                            º
 º                                                                            º
 º  Unrelease Cam/TS/itunes movie/WEB-DL/Screener/DVD/Blueray                 º
 º   Uk and US cammers wanted                                                 º
 º   Need suppliers for audio and video                                       º
 º   and people who are good in searching shit from net                       º
 º                                                                            º
 º          UnKnOwN is back recruiting,if you have anything email us.         º
 º                                                                            º
 º                         unknownreleasegroup@gmail.com                      º
 º                                                                            º
 º                                                                            º
ÉÎËÍÍÍÍÍÍÍÍÍÍÍÍÍÍÍÍÍÍÍÍÍÍÍÍÍÍÍÍÍÍÍÍÍÍÍÍÍÍÍÍÍÍÍÍÍÍÍÍÍÍÍÍÍÍÍÍÍÍÍÍÍÍÍÍÍÍÍÍÍÍÍÍÍÍËλ
È˼ Ð Ð Ð Ð Ð Ð Ð Ð Ð Ð Ð Ð Ð Ð GREETZ & RESPECT Ð Ð Ð Ð  Ð Ð Ð Ð Ð Ð Ð Ð Ð ÐÈ˼
 ÈÍÍÍÍÍÍÍÍÍÍÍÍÍÍÍÍÍÍÍÍÍÍÍËÍÍÍÍÍÍÍÍÍÍÍÍÍÍÍÍÍÍÍÍÍÍÍÍÍÍÍÍÍÍËÍÍÍÍÍÍÍÍÍÍÍÍÍÍÍÍÍÍÍÍͼ
                         º NOBODY YET WILL LET YOU KNOW º
                         º                              º
                         º MORE GOODIES COMING REAL SOONº
                         ÈÍÍÍÍÍÍÍÍÍÍÍÍÍÍÍÍÍÍÍÍÍÍÍÍÍÍÍÍÍͼ



This NFO File was rendered by NFOmation.net


Bookmark and Share

<Mascot>
[ Sitemap ]

aa21