NFOmation.net - Your Ultimate NFO Upload Resource! Viewing NFO file: Train.to.Busan.2016.KOREAN.720p.WEB-DL.XviD.AC3-FGT.nfo Train.to.Busan.2016.KOREAN.720p.WEB-DL.XviD.AC3-FGT

http://imagecurl.com/images/ >>
1128558446669871001_thumb.png
http://imagecurl.com/images/ >>
7204414986707077816_thumb.png
http://imagecurl.com/images/ >>
7746595446638659307_thumb.png
http://imagecurl.com/images/ >>
2437672218926432829_thumb.png
http://imagecurl.com/images/ >>
2740334621313218043_thumb.png
http://imagecurl.com/images/ >>
2179258154983018063_thumb.png

[mediainfo]
Video
ID                                       : 0
Format                                   : MPEG-4 Visual
Format profile                           : Simple@L5
Format settings, BVOP                    : No
Format settings, QPel                    : No
Format settings, GMC                     : No warppoints
Format settings, Matrix                  : Default (H.263)
Codec ID                                 : XVID
Codec ID/Hint                            : XviD
Duration                                 : 1h 57mn
Bit rate                                 : 3 795 Kbps
Width                                    : 1 280 pixels
Height                                   : 690 pixels
Display aspect ratio                     : 1.85:1
Frame rate                               : 24.000 fps
Color space                              : YUV
Chroma subsampling                       : 4:2:0
Bit depth                                : 8 bits
Scan type                                : Progressive
Compression mode                         : Lossy
Bits/(Pixel*Frame)                       : 0.179
Stream size                              : 3.13 GiB (91%)
Writing library                          : Lavc57.24.102

Audio
ID                                       : 1
Format                                   : AC-3
Format/Info                              : Audio Coding 3
Mode extension                           : CM (complete main)
Format settings, Endianness              : Big
Codec ID                                 : 2000
Duration                                 : 1h 57mn
Bit rate mode                            : Constant
Bit rate                                 : 384 Kbps
Channel(s)                               : 6 channels
Channel positions                        : Front: L C R, Side: L R, LFE
Sampling rate                            : 48.0 KHz
Frame rate                               : 31.250 fps (1536 spf)
Compression mode                         : Lossy
Stream size                              : 324 MiB (9%)
Alignment                                : Aligned on interleaves
Interleave, duration                     : 42 ms (1.00 video frame)
Interleave, preload duration             : 512 ms

[/mediainfo]



This NFO File was rendered by NFOmation.net

http://imagecurl.com/images/ >>
1128558446669871001_thumb.png
http://imagecurl.com/images/ >>
7204414986707077816_thumb.png
http://imagecurl.com/images/ >>
7746595446638659307_thumb.png
http://imagecurl.com/images/ >>
2437672218926432829_thumb.png
http://imagecurl.com/images/ >>
2740334621313218043_thumb.png
http://imagecurl.com/images/ >>
2179258154983018063_thumb.png

[mediainfo]
Video
ID                                       : 0
Format                                   : MPEG-4 Visual
Format profile                           : Simple@L5
Format settings, BVOP                    : No
Format settings, QPel                    : No
Format settings, GMC                     : No warppoints
Format settings, Matrix                  : Default (H.263)
Codec ID                                 : XVID
Codec ID/Hint                            : XviD
Duration                                 : 1h 57mn
Bit rate                                 : 3 795 Kbps
Width                                    : 1 280 pixels
Height                                   : 690 pixels
Display aspect ratio                     : 1.85:1
Frame rate                               : 24.000 fps
Color space                              : YUV
Chroma subsampling                       : 4:2:0
Bit depth                                : 8 bits
Scan type                                : Progressive
Compression mode                         : Lossy
Bits/(Pixel*Frame)                       : 0.179
Stream size                              : 3.13 GiB (91%)
Writing library                          : Lavc57.24.102

Audio
ID                                       : 1
Format                                   : AC-3
Format/Info                              : Audio Coding 3
Mode extension                           : CM (complete main)
Format settings, Endianness              : Big
Codec ID                                 : 2000
Duration                                 : 1h 57mn
Bit rate mode                            : Constant
Bit rate                                 : 384 Kbps
Channel(s)                               : 6 channels
Channel positions                        : Front: L C R, Side: L R, LFE
Sampling rate                            : 48.0 KHz
Frame rate                               : 31.250 fps (1536 spf)
Compression mode                         : Lossy
Stream size                              : 324 MiB (9%)
Alignment                                : Aligned on interleaves
Interleave, duration                     : 42 ms (1.00 video frame)
Interleave, preload duration             : 512 ms

[/mediainfo]



This NFO File was rendered by NFOmation.net


Bookmark and Share

<Mascot>
[ Sitemap ]

aa21