NFOmation.net - Your Ultimate NFO Upload Resource! Viewing NFO file: Rogue.One.A.Star.Wars.Story.2016.HD-TS.x264-CPG.nfo Rogue.One.A.Star.Wars.Story.2016.HD-TS.x264-CPG

General
Unique ID                                : 239899063650619376694204357942310868216 (0xB47AE10835A91C >>
FB00E6A0B1D9014F8)
Complete name                            : D:\Rogue.One.A.Star.Wars.Story.2016.HD-TS.x264-CPG.mkv
Format                                   : Matroska
Format version                           : Version 4 / Version 2
File size                                : 2.19 GiB
Duration                                 : 2 h 5 min
Overall bit rate mode                    : Variable
Overall bit rate                         : 2 496 kb/s
Movie name                               : SeeHD.Se
Encoded date                             : UTC 2016-12-17 16:00:59
Writing application                      : mkvmerge v9.4.0 ('Knurl') 32bit
Writing library                          : libebml v1.3.4 + libmatroska v1.4.5

Video
ID                                       : 1
Format                                   : AVC
Format/Info                              : Advanced Video Codec
Format profile                           : High@L4.2
Format settings, CABAC                   : Yes
Format settings, ReFrames                : 4 frames
Codec ID                                 : V_MPEG4/ISO/AVC
Duration                                 : 2 h 5 min
Bit rate mode                            : Variable
Bit rate                                 : 2 301 kb/s
Maximum bit rate                         : 62.5 Mb/s
Width                                    : 720 pixels
Height                                   : 304 pixels
Display aspect ratio                     : 2.35:1
Frame rate mode                          : Constant
Frame rate                               : 30.000 FPS
Color space                              : YUV
Chroma subsampling                       : 4:2:0
Bit depth                                : 8 bits
Scan type                                : Progressive
Bits/(Pixel*Frame)                       : 0.350
Stream size                              : 2.02 GiB (92%)
Default                                  : Yes
Forced                                   : No
Color range                              : Full
Color primaries                          : BT.709
Transfer characteristics                 : BT.709
Matrix coefficients                      : BT.709

Audio
ID                                       : 2
Format                                   : MPEG Audio
Format version                           : Version 1
Format profile                           : Layer 3
Codec ID                                 : A_MPEG/L3
Codec ID/Hint                            : MP3
Duration                                 : 2 h 5 min
Bit rate mode                            : Constant
Bit rate                                 : 192 kb/s
Channel(s)                               : 2 channels
Sampling rate                            : 44.1 kHz
Frame rate                               : 38.281 FPS (1152 spf)
Compression mode                         : Lossy
Delay relative to video                  : 26 ms
Stream size                              : 172 MiB (8%)
Title                                    : English
Default                                  : Yes
Forced                                   : No


This NFO File was rendered by NFOmation.net

General
Unique ID                                : 239899063650619376694204357942310868216 (0xB47AE10835A91C >>
FB00E6A0B1D9014F8)
Complete name                            : D:\Rogue.One.A.Star.Wars.Story.2016.HD-TS.x264-CPG.mkv
Format                                   : Matroska
Format version                           : Version 4 / Version 2
File size                                : 2.19 GiB
Duration                                 : 2 h 5 min
Overall bit rate mode                    : Variable
Overall bit rate                         : 2 496 kb/s
Movie name                               : SeeHD.Se
Encoded date                             : UTC 2016-12-17 16:00:59
Writing application                      : mkvmerge v9.4.0 ('Knurl') 32bit
Writing library                          : libebml v1.3.4 + libmatroska v1.4.5

Video
ID                                       : 1
Format                                   : AVC
Format/Info                              : Advanced Video Codec
Format profile                           : High@L4.2
Format settings, CABAC                   : Yes
Format settings, ReFrames                : 4 frames
Codec ID                                 : V_MPEG4/ISO/AVC
Duration                                 : 2 h 5 min
Bit rate mode                            : Variable
Bit rate                                 : 2 301 kb/s
Maximum bit rate                         : 62.5 Mb/s
Width                                    : 720 pixels
Height                                   : 304 pixels
Display aspect ratio                     : 2.35:1
Frame rate mode                          : Constant
Frame rate                               : 30.000 FPS
Color space                              : YUV
Chroma subsampling                       : 4:2:0
Bit depth                                : 8 bits
Scan type                                : Progressive
Bits/(Pixel*Frame)                       : 0.350
Stream size                              : 2.02 GiB (92%)
Default                                  : Yes
Forced                                   : No
Color range                              : Full
Color primaries                          : BT.709
Transfer characteristics                 : BT.709
Matrix coefficients                      : BT.709

Audio
ID                                       : 2
Format                                   : MPEG Audio
Format version                           : Version 1
Format profile                           : Layer 3
Codec ID                                 : A_MPEG/L3
Codec ID/Hint                            : MP3
Duration                                 : 2 h 5 min
Bit rate mode                            : Constant
Bit rate                                 : 192 kb/s
Channel(s)                               : 2 channels
Sampling rate                            : 44.1 kHz
Frame rate                               : 38.281 FPS (1152 spf)
Compression mode                         : Lossy
Delay relative to video                  : 26 ms
Stream size                              : 172 MiB (8%)
Title                                    : English
Default                                  : Yes
Forced                                   : No


This NFO File was rendered by NFOmation.net


Bookmark and Share

<Mascot>
[ Sitemap ]

aa21