NFOmation.net - Your Ultimate NFO Upload Resource! Viewing NFO file: The.Accountant.2016.1080p.BluRay.REMUX.AVC.DTS-HD.MA.7.1-FGT.nfo The.Accountant.2016.1080p.BluRay.REMUX.AVC.DTS-HD.MA.7.1-FGT

http://imagecurl.com/images/ >>
8930272382619503428_thumb.png
http://imagecurl.com/images/ >>
0988115453212466716_thumb.png
http://imagecurl.com/images/ >>
9849839754700559729_thumb.png
http://imagecurl.com/images/ >>
4672124637424421559_thumb.png
http://imagecurl.com/images/ >>
7032885435199313363_thumb.png
http://imagecurl.com/images/ >>
2438007649352558387_thumb.png

[mediainfo]
Video
ID                                       : 1
Format                                   : AVC
Format/Info                              : Advanced Video Codec
Format profile                           : High@L4.1
Format settings, CABAC                   : Yes
Format settings, ReFrames                : 4 frames
Codec ID                                 : V_MPEG4/ISO/AVC
Duration                                 : 2h 7mn
Bit rate mode                            : Variable
Maximum bit rate                         : 34.0 Mbps
Width                                    : 1 920 pixels
Height                                   : 1 080 pixels
Display aspect ratio                     : 16:9
Frame rate mode                          : Constant
Frame rate                               : 23.976 (24000/1001) fps
Color space                              : YUV
Chroma subsampling                       : 4:2:0
Bit depth                                : 8 bits
Scan type                                : Progressive
Title                                    : The.Accountant.2016.1080p.BluRay.REMUX.AVC.DTS-HD.MA.7.1-FGT
Language                                 : English
Default                                  : No
Forced                                   : No

Audio #1
ID                                       : 2
Format                                   : DTS
Format/Info                              : Digital Theater Systems
Format profile                           : MA / Core
Mode                                     : 16
Format settings, Endianness              : Big
Codec ID                                 : A_DTS
Duration                                 : 2h 7mn
Bit rate mode                            : Variable / Constant
Bit rate                                 : Unknown / 1 509 Kbps
Channel(s)                               : 8 channels / 6 channels
Channel positions                        : Front: L C R, Side: L R, Back: L R, LFE / Front: L C R, Side: >>
L R, LFE
Sampling rate                            : 48.0 KHz
Frame rate                               : 93.750 fps (512 spf)
Bit depth                                : 16 bits
Compression mode                         : Lossless / Lossy
Title                                    : The.Accountant.2016.1080p.BluRay.REMUX.AVC.DTS-HD.MA.7.1-FGT
Language                                 : English
Default                                  : Yes
Forced                                   : No

Audio #2
ID                                       : 3
Format                                   : DTS
Format/Info                              : Digital Theater Systems
Mode                                     : 16
Format settings, Endianness              : Big
Codec ID                                 : A_DTS
Duration                                 : 2h 7mn
Bit rate mode                            : Constant
Bit rate                                 : 1 509 Kbps
Channel(s)                               : 6 channels
Channel positions                        : Front: L C R, Side: L R, LFE
Sampling rate                            : 48.0 KHz
Frame rate                               : 93.750 fps (512 spf)
Bit depth                                : 16 bits
Compression mode                         : Lossy
Stream size                              : 1.35 GiB (4%)
Title                                    : The.Accountant.2016.1080p.BluRay.REMUX.AVC.DTS-HD.MA.7.1-FGT
Language                                 : English
Default                                  : No
Forced                                   : No

Audio #3
ID                                       : 4
Format                                   : DTS
Format/Info                              : Digital Theater Systems
Format profile                           : MA / Core
Mode                                     : 16
Format settings, Endianness              : Big
Codec ID                                 : A_DTS
Duration                                 : 2h 7mn
Bit rate mode                            : Variable / Constant
Bit rate                                 : Unknown / 1 509 Kbps
Channel(s)                               : 6 channels
Channel positions                        : Front: L C R, Side: L R, LFE
Sampling rate                            : 48.0 KHz
Frame rate                               : 93.750 fps (512 spf)
Bit depth                                : 16 bits
Compression mode                         : Lossless / Lossy
Title                                    : The.Accountant.2016.1080p.BluRay.REMUX.AVC.DTS-HD.MA.7.1-FGT
Language                                 : English
Default                                  : No
Forced                                   : No

Audio #4
ID                                       : 5
Format                                   : DTS
Format/Info                              : Digital Theater Systems
Mode                                     : 16
Format settings, Endianness              : Big
Codec ID                                 : A_DTS
Duration                                 : 2h 7mn
Bit rate mode                            : Constant
Bit rate                                 : 1 509 Kbps
Channel(s)                               : 6 channels
Channel positions                        : Front: L C R, Side: L R, LFE
Sampling rate                            : 48.0 KHz
Frame rate                               : 93.750 fps (512 spf)
Bit depth                                : 16 bits
Compression mode                         : Lossy
Stream size                              : 1.35 GiB (4%)
Title                                    : The.Accountant.2016.1080p.BluRay.REMUX.AVC.DTS-HD.MA.7.1-FGT
Language                                 : English
Default                                  : No
Forced                                   : No

Audio #5
ID                                       : 6
Format                                   : AC-3
Format/Info                              : Audio Coding 3
Mode extension                           : CM (complete main)
Format settings, Endianness              : Big
Codec ID                                 : A_AC3
Duration                                 : 2h 7mn
Bit rate mode                            : Constant
Bit rate                                 : 640 Kbps
Channel(s)                               : 6 channels
Channel positions                        : Front: L C R, Side: L R, LFE
Sampling rate                            : 48.0 KHz
Frame rate                               : 31.250 fps (1536 spf)
Compression mode                         : Lossy
Stream size                              : 586 MiB (2%)
Title                                    : The.Accountant.2016.1080p.BluRay.REMUX.AVC.DTS-HD.MA.7.1-FGT
Language                                 : English
Default                                  : No
Forced                                   : No

Audio #6
ID                                       : 7
Format                                   : AC-3
Format/Info                              : Audio Coding 3
Mode extension                           : CM (complete main)
Format settings, Endianness              : Big
Codec ID                                 : A_AC3
Duration                                 : 2h 7mn
Bit rate mode                            : Constant
Bit rate                                 : 640 Kbps
Channel(s)                               : 6 channels
Channel positions                        : Front: L C R, Side: L R, LFE
Sampling rate                            : 48.0 KHz
Frame rate                               : 31.250 fps (1536 spf)
Compression mode                         : Lossy
Stream size                              : 586 MiB (2%)
Title                                    : The.Accountant.2016.1080p.BluRay.REMUX.AVC.DTS-HD.MA.7.1-FGT
Language                                 : French
Default                                  : No
Forced                                   : No

Audio #7
ID                                       : 8
Format                                   : AC-3
Format/Info                              : Audio Coding 3
Mode extension                           : CM (complete main)
Format settings, Endianness              : Big
Codec ID                                 : A_AC3
Duration                                 : 2h 7mn
Bit rate mode                            : Constant
Bit rate                                 : 640 Kbps
Channel(s)                               : 6 channels
Channel positions                        : Front: L C R, Side: L R, LFE
Sampling rate                            : 48.0 KHz
Frame rate                               : 31.250 fps (1536 spf)
Compression mode                         : Lossy
Stream size                              : 586 MiB (2%)
Title                                    : The.Accountant.2016.1080p.BluRay.REMUX.AVC.DTS-HD.MA.7.1-FGT
Language                                 : Spanish
Default                                  : No
Forced                                   : No

Audio #8
ID                                       : 9
Format                                   : AC-3
Format/Info                              : Audio Coding 3
Mode extension                           : CM (complete main)
Format settings, Endianness              : Big
Codec ID                                 : A_AC3
Duration                                 : 2h 7mn
Bit rate mode                            : Constant
Bit rate                                 : 640 Kbps
Channel(s)                               : 6 channels
Channel positions                        : Front: L C R, Side: L R, LFE
Sampling rate                            : 48.0 KHz
Frame rate                               : 31.250 fps (1536 spf)
Compression mode                         : Lossy
Stream size                              : 586 MiB (2%)
Title                                    : The.Accountant.2016.1080p.BluRay.REMUX.AVC.DTS-HD.MA.7.1-FGT
Language                                 : Portuguese
Default                                  : No
Forced                                   : No

Text #1
ID                                       : 10
Format                                   : PGS
Muxing mode                              : zlib
Codec ID                                 : S_HDMV/PGS
Codec ID/Info                            : Picture based subtitle format used on BDs/HD-DVDs
Title                                    : English-PGS
Language                                 : English
Default                                  : No
Forced                                   : No

Text #2
ID                                       : 11
Format                                   : PGS
Muxing mode                              : zlib
Codec ID                                 : S_HDMV/PGS
Codec ID/Info                            : Picture based subtitle format used on BDs/HD-DVDs
Title                                    : French-PGS
Language                                 : French
Default                                  : No
Forced                                   : No

Text #3
ID                                       : 12
Format                                   : PGS
Muxing mode                              : zlib
Codec ID                                 : S_HDMV/PGS
Codec ID/Info                            : Picture based subtitle format used on BDs/HD-DVDs
Title                                    : Spanish-PGS
Language                                 : Spanish
Default                                  : No
Forced                                   : No

Text #4
ID                                       : 13
Format                                   : PGS
Muxing mode                              : zlib
Codec ID                                 : S_HDMV/PGS
Codec ID/Info                            : Picture based subtitle format used on BDs/HD-DVDs
Title                                    : Portuguese-PGS
Language                                 : Portuguese
Default                                  : No
Forced                                   : No

Text #5
ID                                       : 14
Format                                   : PGS
Muxing mode                              : zlib
Codec ID                                 : S_HDMV/PGS
Codec ID/Info                            : Picture based subtitle format used on BDs/HD-DVDs
Title                                    : French-FORCED-PGS
Language                                 : French
Default                                  : No
Forced                                   : No

Text #6
ID                                       : 15
Format                                   : PGS
Muxing mode                              : zlib
Codec ID                                 : S_HDMV/PGS
Codec ID/Info                            : Picture based subtitle format used on BDs/HD-DVDs
Title                                    : Spanish-FORCED-PGS
Language                                 : Spanish
Default                                  : No
Forced                                   : No

Text #7
ID                                       : 16
Format                                   : PGS
Muxing mode                              : zlib
Codec ID                                 : S_HDMV/PGS
Codec ID/Info                            : Picture based subtitle format used on BDs/HD-DVDs
Title                                    : Portuguese-FORCED-PGS
Language                                 : Portuguese
Default                                  : No
Forced                                   : No

Menu
00:00:00.000                             : en:Chapter 01
00:13:01.447                             : en:Chapter 02
00:20:36.276                             : en:Chapter 03
00:29:30.393                             : en:Chapter 04
00:38:44.655                             : en:Chapter 05
00:49:33.679                             : en:Chapter 06
01:00:05.435                             : en:Chapter 07
01:13:39.706                             : en:Chapter 08
01:25:57.068                             : en:Chapter 09
01:39:15.658                             : en:Chapter 10
01:54:31.155                             : en:Chapter 11
02:01:40.251                             : en:Chapter 12

[/mediainfo]



This NFO File was rendered by NFOmation.net

http://imagecurl.com/images/ >>
8930272382619503428_thumb.png
http://imagecurl.com/images/ >>
0988115453212466716_thumb.png
http://imagecurl.com/images/ >>
9849839754700559729_thumb.png
http://imagecurl.com/images/ >>
4672124637424421559_thumb.png
http://imagecurl.com/images/ >>
7032885435199313363_thumb.png
http://imagecurl.com/images/ >>
2438007649352558387_thumb.png

[mediainfo]
Video
ID                                       : 1
Format                                   : AVC
Format/Info                              : Advanced Video Codec
Format profile                           : High@L4.1
Format settings, CABAC                   : Yes
Format settings, ReFrames                : 4 frames
Codec ID                                 : V_MPEG4/ISO/AVC
Duration                                 : 2h 7mn
Bit rate mode                            : Variable
Maximum bit rate                         : 34.0 Mbps
Width                                    : 1 920 pixels
Height                                   : 1 080 pixels
Display aspect ratio                     : 16:9
Frame rate mode                          : Constant
Frame rate                               : 23.976 (24000/1001) fps
Color space                              : YUV
Chroma subsampling                       : 4:2:0
Bit depth                                : 8 bits
Scan type                                : Progressive
Title                                    : The.Accountant.2016.1080p.BluRay.REMUX.AVC.DTS-HD.MA.7.1-FGT
Language                                 : English
Default                                  : No
Forced                                   : No

Audio #1
ID                                       : 2
Format                                   : DTS
Format/Info                              : Digital Theater Systems
Format profile                           : MA / Core
Mode                                     : 16
Format settings, Endianness              : Big
Codec ID                                 : A_DTS
Duration                                 : 2h 7mn
Bit rate mode                            : Variable / Constant
Bit rate                                 : Unknown / 1 509 Kbps
Channel(s)                               : 8 channels / 6 channels
Channel positions                        : Front: L C R, Side: L R, Back: L R, LFE / Front: L C R, Side: >>
L R, LFE
Sampling rate                            : 48.0 KHz
Frame rate                               : 93.750 fps (512 spf)
Bit depth                                : 16 bits
Compression mode                         : Lossless / Lossy
Title                                    : The.Accountant.2016.1080p.BluRay.REMUX.AVC.DTS-HD.MA.7.1-FGT
Language                                 : English
Default                                  : Yes
Forced                                   : No

Audio #2
ID                                       : 3
Format                                   : DTS
Format/Info                              : Digital Theater Systems
Mode                                     : 16
Format settings, Endianness              : Big
Codec ID                                 : A_DTS
Duration                                 : 2h 7mn
Bit rate mode                            : Constant
Bit rate                                 : 1 509 Kbps
Channel(s)                               : 6 channels
Channel positions                        : Front: L C R, Side: L R, LFE
Sampling rate                            : 48.0 KHz
Frame rate                               : 93.750 fps (512 spf)
Bit depth                                : 16 bits
Compression mode                         : Lossy
Stream size                              : 1.35 GiB (4%)
Title                                    : The.Accountant.2016.1080p.BluRay.REMUX.AVC.DTS-HD.MA.7.1-FGT
Language                                 : English
Default                                  : No
Forced                                   : No

Audio #3
ID                                       : 4
Format                                   : DTS
Format/Info                              : Digital Theater Systems
Format profile                           : MA / Core
Mode                                     : 16
Format settings, Endianness              : Big
Codec ID                                 : A_DTS
Duration                                 : 2h 7mn
Bit rate mode                            : Variable / Constant
Bit rate                                 : Unknown / 1 509 Kbps
Channel(s)                               : 6 channels
Channel positions                        : Front: L C R, Side: L R, LFE
Sampling rate                            : 48.0 KHz
Frame rate                               : 93.750 fps (512 spf)
Bit depth                                : 16 bits
Compression mode                         : Lossless / Lossy
Title                                    : The.Accountant.2016.1080p.BluRay.REMUX.AVC.DTS-HD.MA.7.1-FGT
Language                                 : English
Default                                  : No
Forced                                   : No

Audio #4
ID                                       : 5
Format                                   : DTS
Format/Info                              : Digital Theater Systems
Mode                                     : 16
Format settings, Endianness              : Big
Codec ID                                 : A_DTS
Duration                                 : 2h 7mn
Bit rate mode                            : Constant
Bit rate                                 : 1 509 Kbps
Channel(s)                               : 6 channels
Channel positions                        : Front: L C R, Side: L R, LFE
Sampling rate                            : 48.0 KHz
Frame rate                               : 93.750 fps (512 spf)
Bit depth                                : 16 bits
Compression mode                         : Lossy
Stream size                              : 1.35 GiB (4%)
Title                                    : The.Accountant.2016.1080p.BluRay.REMUX.AVC.DTS-HD.MA.7.1-FGT
Language                                 : English
Default                                  : No
Forced                                   : No

Audio #5
ID                                       : 6
Format                                   : AC-3
Format/Info                              : Audio Coding 3
Mode extension                           : CM (complete main)
Format settings, Endianness              : Big
Codec ID                                 : A_AC3
Duration                                 : 2h 7mn
Bit rate mode                            : Constant
Bit rate                                 : 640 Kbps
Channel(s)                               : 6 channels
Channel positions                        : Front: L C R, Side: L R, LFE
Sampling rate                            : 48.0 KHz
Frame rate                               : 31.250 fps (1536 spf)
Compression mode                         : Lossy
Stream size                              : 586 MiB (2%)
Title                                    : The.Accountant.2016.1080p.BluRay.REMUX.AVC.DTS-HD.MA.7.1-FGT
Language                                 : English
Default                                  : No
Forced                                   : No

Audio #6
ID                                       : 7
Format                                   : AC-3
Format/Info                              : Audio Coding 3
Mode extension                           : CM (complete main)
Format settings, Endianness              : Big
Codec ID                                 : A_AC3
Duration                                 : 2h 7mn
Bit rate mode                            : Constant
Bit rate                                 : 640 Kbps
Channel(s)                               : 6 channels
Channel positions                        : Front: L C R, Side: L R, LFE
Sampling rate                            : 48.0 KHz
Frame rate                               : 31.250 fps (1536 spf)
Compression mode                         : Lossy
Stream size                              : 586 MiB (2%)
Title                                    : The.Accountant.2016.1080p.BluRay.REMUX.AVC.DTS-HD.MA.7.1-FGT
Language                                 : French
Default                                  : No
Forced                                   : No

Audio #7
ID                                       : 8
Format                                   : AC-3
Format/Info                              : Audio Coding 3
Mode extension                           : CM (complete main)
Format settings, Endianness              : Big
Codec ID                                 : A_AC3
Duration                                 : 2h 7mn
Bit rate mode                            : Constant
Bit rate                                 : 640 Kbps
Channel(s)                               : 6 channels
Channel positions                        : Front: L C R, Side: L R, LFE
Sampling rate                            : 48.0 KHz
Frame rate                               : 31.250 fps (1536 spf)
Compression mode                         : Lossy
Stream size                              : 586 MiB (2%)
Title                                    : The.Accountant.2016.1080p.BluRay.REMUX.AVC.DTS-HD.MA.7.1-FGT
Language                                 : Spanish
Default                                  : No
Forced                                   : No

Audio #8
ID                                       : 9
Format                                   : AC-3
Format/Info                              : Audio Coding 3
Mode extension                           : CM (complete main)
Format settings, Endianness              : Big
Codec ID                                 : A_AC3
Duration                                 : 2h 7mn
Bit rate mode                            : Constant
Bit rate                                 : 640 Kbps
Channel(s)                               : 6 channels
Channel positions                        : Front: L C R, Side: L R, LFE
Sampling rate                            : 48.0 KHz
Frame rate                               : 31.250 fps (1536 spf)
Compression mode                         : Lossy
Stream size                              : 586 MiB (2%)
Title                                    : The.Accountant.2016.1080p.BluRay.REMUX.AVC.DTS-HD.MA.7.1-FGT
Language                                 : Portuguese
Default                                  : No
Forced                                   : No

Text #1
ID                                       : 10
Format                                   : PGS
Muxing mode                              : zlib
Codec ID                                 : S_HDMV/PGS
Codec ID/Info                            : Picture based subtitle format used on BDs/HD-DVDs
Title                                    : English-PGS
Language                                 : English
Default                                  : No
Forced                                   : No

Text #2
ID                                       : 11
Format                                   : PGS
Muxing mode                              : zlib
Codec ID                                 : S_HDMV/PGS
Codec ID/Info                            : Picture based subtitle format used on BDs/HD-DVDs
Title                                    : French-PGS
Language                                 : French
Default                                  : No
Forced                                   : No

Text #3
ID                                       : 12
Format                                   : PGS
Muxing mode                              : zlib
Codec ID                                 : S_HDMV/PGS
Codec ID/Info                            : Picture based subtitle format used on BDs/HD-DVDs
Title                                    : Spanish-PGS
Language                                 : Spanish
Default                                  : No
Forced                                   : No

Text #4
ID                                       : 13
Format                                   : PGS
Muxing mode                              : zlib
Codec ID                                 : S_HDMV/PGS
Codec ID/Info                            : Picture based subtitle format used on BDs/HD-DVDs
Title                                    : Portuguese-PGS
Language                                 : Portuguese
Default                                  : No
Forced                                   : No

Text #5
ID                                       : 14
Format                                   : PGS
Muxing mode                              : zlib
Codec ID                                 : S_HDMV/PGS
Codec ID/Info                            : Picture based subtitle format used on BDs/HD-DVDs
Title                                    : French-FORCED-PGS
Language                                 : French
Default                                  : No
Forced                                   : No

Text #6
ID                                       : 15
Format                                   : PGS
Muxing mode                              : zlib
Codec ID                                 : S_HDMV/PGS
Codec ID/Info                            : Picture based subtitle format used on BDs/HD-DVDs
Title                                    : Spanish-FORCED-PGS
Language                                 : Spanish
Default                                  : No
Forced                                   : No

Text #7
ID                                       : 16
Format                                   : PGS
Muxing mode                              : zlib
Codec ID                                 : S_HDMV/PGS
Codec ID/Info                            : Picture based subtitle format used on BDs/HD-DVDs
Title                                    : Portuguese-FORCED-PGS
Language                                 : Portuguese
Default                                  : No
Forced                                   : No

Menu
00:00:00.000                             : en:Chapter 01
00:13:01.447                             : en:Chapter 02
00:20:36.276                             : en:Chapter 03
00:29:30.393                             : en:Chapter 04
00:38:44.655                             : en:Chapter 05
00:49:33.679                             : en:Chapter 06
01:00:05.435                             : en:Chapter 07
01:13:39.706                             : en:Chapter 08
01:25:57.068                             : en:Chapter 09
01:39:15.658                             : en:Chapter 10
01:54:31.155                             : en:Chapter 11
02:01:40.251                             : en:Chapter 12

[/mediainfo]



This NFO File was rendered by NFOmation.net


Bookmark and Share

<Mascot>
[ Sitemap ]

aa21