NFOmation.net - Your Ultimate NFO Upload Resource! Viewing NFO file: Assassins.Creed.2016.HDTS.XviD.AC3-CM8.nfo Assassins.Creed.2016.HDTS.XviD.AC3-CM8

http://i.imgur.com/4tJLwDT.jpg

Assassins.Creed.2016.HDTS.XVID.AC3.HQ.Hive-CM8

Thx Hive

CM8 Doing It Right The First Time

Sources:
Video: French Source HDCAM no watermarks thx m8
Audio: English Digital Line Audio (thx cpg)
thx

NEWS:
yes still here and kicking, we had to do a brake for some time, bet you are waiting for screeners, yep >>
why not
we were definately not in the mood to do the same mistake as last year screeners before christmas or cinedate
now that christmas holidays are past we are actually looking forward to get the dice rolling.
we want to get them out safely and secure as every year,
whoever has a screener or knows someone who has one and wants to share privately or for public just let >>
us know we are here. (eg.B5 if you want)
addy is at bottom

Notes:
had the french sourcefiles for some days, was waiting for line to mix them together, fits now nicely

Encode:
Quality was already nice, rotated video and fixed perspective. theire was no need to add brightness or >>
sharpness
added line audio from cpg, added subs for the major foreign speaking parts to let you know whats going on

got very nice, will do me till retail
enjoy

Video: 720x320 @bitrate 1700 2pass
Audio: English Digital Line Audio AC3 2.0
Sample: yes included

http://www.imdb.com/title/tt2094766/

General
Complete name                  : Assassins.Creed.2016.HDTS.XVID.AC3.HQ.Hive-CM8.avi
Format                         : AVI
Format/Info                    : Audio Video Interleave
File size                      : 1.39 GiB
Duration                       : 1h 40mn
Overall bit rate               : 1 967 Kbps
Writing application            : Nandub v1.0rc2
Writing library                : Nandub build 1853/release

Video
ID                             : 0
Format                         : MPEG-4 Visual
Format profile                 : Advanced Simple@L5
Format settings, BVOP          : 2
Format settings, QPel          : Yes
Format settings, GMC           : No warppoints
Format settings, Matrix        : Default (H.263)
Muxing mode                    : Packed bitstream
Codec ID                       : XVID
Codec ID/Hint                  : XviD
Duration                       : 1h 40mn
Bit rate                       : 1 700 Kbps
Width                          : 720 pixels
Height                         : 320 pixels
Display aspect ratio           : 2.25:1
Frame rate                     : 30.000 fps
Color space                    : YUV
Chroma subsampling             : 4:2:0
Bit depth                      : 8 bits
Scan type                      : Progressive
Compression mode               : Lossy
Bits/(Pixel*Frame)             : 0.246
Stream size                    : 1.20 GiB (86%)
Writing library                : XviD 1.2.1 (UTC 2008-12-04)

Audio
ID                             : 1
Format                         : AC-3
Format/Info                    : Audio Coding 3
Mode extension                 : CM (complete main)
Format settings, Endianness    : Big
Codec ID                       : 2000
Duration                       : 1h 40mn
Bit rate mode                  : Constant
Bit rate                       : 256 Kbps
Channel(s)                     : 2 channels
Channel positions              : Front: L R
Sampling rate                  : 48.0 KHz
Bit depth                      : 16 bits
Compression mode               : Lossy
Stream size                    : 184 MiB (13%)
Alignment                      : Split accross interleaves
Interleave, duration           : 33 ms (1.00 video frame)
Interleave, preload duration   : 500 ms

Screens

http://i.imgur.com/4jDn2iJ.png
http://i.imgur.com/gNLFj3J.png
http://i.imgur.com/gjJhG0O.png
http://i.imgur.com/S3dAXe6.png
http://i.imgur.com/uEhFS2x.png
http://i.imgur.com/IciAdsR.png
http://i.imgur.com/tllMZU0.png

Plot

When Callum Lynch explores the memories of his ancestor Aguilar and gains the skills of a Master >>
Assassin, he discovers he is a descendant of the secret Assassins society.

Cast overview, first billed only:

Michael Fassbender         ...         Cal Lynch / Aguilar
Marion Cotillard         ...         Sofia
Jeremy Irons                 ...         Rikkin
Brendan Gleeson         ...         Joseph Lynch
Charlotte Rampling         ...         Ellen Kaye
Michael Kenneth Williams...         Moussa (as Michael K. Williams)
Denis MΘnochet                 ...         McGowen (as Denis Menochet)
Ariane Labed                 ...         Maria
Khalid Abdalla                 ...         Sultan Muhammad XII
Essie Davis                 ...         Mary Lynch
Matias Varela                 ...         Emir
Callum Turner                 ...         Nathan
Carlos Bardem                 ...         Benedicto
Javier GutiΘrrez         ...         Tomas de Torquemada
Hovik Keuchkerian         ...         Ojeda

LOOKING FOR SCREENER GUYS msg us cm8crew@hushmail.com

COME FIND US WE DONT BITE


This NFO File was rendered by NFOmation.net

http://i.imgur.com/4tJLwDT.jpg

Assassins.Creed.2016.HDTS.XVID.AC3.HQ.Hive-CM8

Thx Hive

CM8 Doing It Right The First Time

Sources:
Video: French Source HDCAM no watermarks thx m8
Audio: English Digital Line Audio (thx cpg)
thx

NEWS:
yes still here and kicking, we had to do a brake for some time, bet you are waiting for screeners, yep >>
why not
we were definately not in the mood to do the same mistake as last year screeners before christmas or cinedate
now that christmas holidays are past we are actually looking forward to get the dice rolling.
we want to get them out safely and secure as every year,
whoever has a screener or knows someone who has one and wants to share privately or for public just let >>
us know we are here. (eg.B5 if you want)
addy is at bottom

Notes:
had the french sourcefiles for some days, was waiting for line to mix them together, fits now nicely

Encode:
Quality was already nice, rotated video and fixed perspective. theire was no need to add brightness or >>
sharpness
added line audio from cpg, added subs for the major foreign speaking parts to let you know whats going on

got very nice, will do me till retail
enjoy

Video: 720x320 @bitrate 1700 2pass
Audio: English Digital Line Audio AC3 2.0
Sample: yes included

http://www.imdb.com/title/tt2094766/

General
Complete name                  : Assassins.Creed.2016.HDTS.XVID.AC3.HQ.Hive-CM8.avi
Format                         : AVI
Format/Info                    : Audio Video Interleave
File size                      : 1.39 GiB
Duration                       : 1h 40mn
Overall bit rate               : 1 967 Kbps
Writing application            : Nandub v1.0rc2
Writing library                : Nandub build 1853/release

Video
ID                             : 0
Format                         : MPEG-4 Visual
Format profile                 : Advanced Simple@L5
Format settings, BVOP          : 2
Format settings, QPel          : Yes
Format settings, GMC           : No warppoints
Format settings, Matrix        : Default (H.263)
Muxing mode                    : Packed bitstream
Codec ID                       : XVID
Codec ID/Hint                  : XviD
Duration                       : 1h 40mn
Bit rate                       : 1 700 Kbps
Width                          : 720 pixels
Height                         : 320 pixels
Display aspect ratio           : 2.25:1
Frame rate                     : 30.000 fps
Color space                    : YUV
Chroma subsampling             : 4:2:0
Bit depth                      : 8 bits
Scan type                      : Progressive
Compression mode               : Lossy
Bits/(Pixel*Frame)             : 0.246
Stream size                    : 1.20 GiB (86%)
Writing library                : XviD 1.2.1 (UTC 2008-12-04)

Audio
ID                             : 1
Format                         : AC-3
Format/Info                    : Audio Coding 3
Mode extension                 : CM (complete main)
Format settings, Endianness    : Big
Codec ID                       : 2000
Duration                       : 1h 40mn
Bit rate mode                  : Constant
Bit rate                       : 256 Kbps
Channel(s)                     : 2 channels
Channel positions              : Front: L R
Sampling rate                  : 48.0 KHz
Bit depth                      : 16 bits
Compression mode               : Lossy
Stream size                    : 184 MiB (13%)
Alignment                      : Split accross interleaves
Interleave, duration           : 33 ms (1.00 video frame)
Interleave, preload duration   : 500 ms

Screens

http://i.imgur.com/4jDn2iJ.png
http://i.imgur.com/gNLFj3J.png
http://i.imgur.com/gjJhG0O.png
http://i.imgur.com/S3dAXe6.png
http://i.imgur.com/uEhFS2x.png
http://i.imgur.com/IciAdsR.png
http://i.imgur.com/tllMZU0.png

Plot

When Callum Lynch explores the memories of his ancestor Aguilar and gains the skills of a Master >>
Assassin, he discovers he is a descendant of the secret Assassins society.

Cast overview, first billed only:

Michael Fassbender         ...         Cal Lynch / Aguilar
Marion Cotillard         ...         Sofia
Jeremy Irons                 ...         Rikkin
Brendan Gleeson         ...         Joseph Lynch
Charlotte Rampling         ...         Ellen Kaye
Michael Kenneth Williams...         Moussa (as Michael K. Williams)
Denis Ménochet                 ...         McGowen (as Denis Menochet)
Ariane Labed                 ...         Maria
Khalid Abdalla                 ...         Sultan Muhammad XII
Essie Davis                 ...         Mary Lynch
Matias Varela                 ...         Emir
Callum Turner                 ...         Nathan
Carlos Bardem                 ...         Benedicto
Javier Gutiérrez         ...         Tomas de Torquemada
Hovik Keuchkerian         ...         Ojeda

LOOKING FOR SCREENER GUYS msg us cm8crew@hushmail.com

COME FIND US WE DONT BITE


This NFO File was rendered by NFOmation.net


Bookmark and Share

<Mascot>
[ Sitemap ]

aa21