NFOmation.net - Your Ultimate NFO Upload Resource! Viewing NFO file: Sing.2016.READNFO.CAM.XviD.AC3-ACAB.nfo Sing.2016.READNFO.CAM.XviD.AC3-ACAB

Sing.2016.READNFO.CAM.XviD.AC3-ACAB

http://www.imdb.com/title/tt3470600

READNFO Reason
For Some Reason When Syncing Video And Audio Its Duplicated Frames When This Happens It Only Lasts A >>
Second Doesnt Spoil The Movie (Hopefully Not Anyways) Maybe I Proper Encoder Could Sync Properly But >>
I Dont Pretend That Im Great Far From It. So For Now Enjoy ...

P.s. Theres More Stuff In The Pipeline >>>

Source Video - MVGEE [Thanks]
Source Audio - Thanks Bro :bow:

Format                                   : AVI
Format/Info                              : Audio Video Interleave
File size                                : 1.42 GiB
Duration                                 : 1 h 41 min
Overall bit rate                         : 2 001 kb/s
Writing library                          : VirtualDub build 30091/release

Video
ID                                       : 0
Format                                   : MPEG-4 Visual
Format profile                           : Advanced Simple@L5
Format settings, BVOP                    : 2
Format settings, QPel                    : No
Format settings, GMC                     : No warppoints
Format settings, Matrix                  : Default (H.263)
Muxing mode                              : Packed bitstream
Codec ID                                 : XVID
Codec ID/Hint                            : XviD
Duration                                 : 1 h 41 min
Bit rate                                 : 1 800 kb/s
Width                                    : 720 pixels
Height                                   : 384 pixels
Display aspect ratio                     : 1.85:1
Frame rate                               : 25.000 FPS
Color space                              : YUV
Chroma subsampling                       : 4:2:0
Bit depth                                : 8 bits
Scan type                                : Progressive
Compression mode                         : Lossy
Bits/(Pixel*Frame)                       : 0.260
Stream size                              : 1.28 GiB (90%)
Writing library                          : XviD 67

Audio
ID                                       : 1
Format                                   : AC-3
Format/Info                              : Audio Coding 3
Mode extension                           : CM (complete main)
Format settings, Endianness              : Big
Codec ID                                 : 2000
Duration                                 : 1 h 41 min
Bit rate mode                            : Constant
Bit rate                                 : 192 kb/s
Sampling rate                            : 48.0 kHz
Frame rate                               : 31.250 FPS (1536 spf)
Compression mode                         : Lossy
Stream size                              : 139 MiB (10%)
Alignment                                : Aligned on interleaves
Interleave, duration                     : 40  ms (1.00 video frame)
Interleave, preload duration : 512 ms


This NFO File was rendered by NFOmation.net

Sing.2016.READNFO.CAM.XviD.AC3-ACAB

http://www.imdb.com/title/tt3470600

READNFO Reason
For Some Reason When Syncing Video And Audio Its Duplicated Frames When This Happens It Only Lasts A >>
Second Doesnt Spoil The Movie (Hopefully Not Anyways) Maybe I Proper Encoder Could Sync Properly But >>
I Dont Pretend That Im Great Far From It. So For Now Enjoy ...

P.s. Theres More Stuff In The Pipeline >>>

Source Video - MVGEE [Thanks]
Source Audio - Thanks Bro :bow:

Format                                   : AVI
Format/Info                              : Audio Video Interleave
File size                                : 1.42 GiB
Duration                                 : 1 h 41 min
Overall bit rate                         : 2 001 kb/s
Writing library                          : VirtualDub build 30091/release

Video
ID                                       : 0
Format                                   : MPEG-4 Visual
Format profile                           : Advanced Simple@L5
Format settings, BVOP                    : 2
Format settings, QPel                    : No
Format settings, GMC                     : No warppoints
Format settings, Matrix                  : Default (H.263)
Muxing mode                              : Packed bitstream
Codec ID                                 : XVID
Codec ID/Hint                            : XviD
Duration                                 : 1 h 41 min
Bit rate                                 : 1 800 kb/s
Width                                    : 720 pixels
Height                                   : 384 pixels
Display aspect ratio                     : 1.85:1
Frame rate                               : 25.000 FPS
Color space                              : YUV
Chroma subsampling                       : 4:2:0
Bit depth                                : 8 bits
Scan type                                : Progressive
Compression mode                         : Lossy
Bits/(Pixel*Frame)                       : 0.260
Stream size                              : 1.28 GiB (90%)
Writing library                          : XviD 67

Audio
ID                                       : 1
Format                                   : AC-3
Format/Info                              : Audio Coding 3
Mode extension                           : CM (complete main)
Format settings, Endianness              : Big
Codec ID                                 : 2000
Duration                                 : 1 h 41 min
Bit rate mode                            : Constant
Bit rate                                 : 192 kb/s
Sampling rate                            : 48.0 kHz
Frame rate                               : 31.250 FPS (1536 spf)
Compression mode                         : Lossy
Stream size                              : 139 MiB (10%)
Alignment                                : Aligned on interleaves
Interleave, duration                     : 40  ms (1.00 video frame)
Interleave, preload duration : 512 ms


This NFO File was rendered by NFOmation.net


Bookmark and Share

<Mascot>
[ Sitemap ]

aa21