NFOmation.net - Your Ultimate NFO Upload Resource! Viewing NFO file: The.Girl.With.All.The.Gifts.2016.HDRip.XVID.AC3.HQ.Hive-CM8.nfo The.Girl.With.All.The.Gifts.2016.HDRip.XVID.AC3.HQ.Hive-CM8

http://i.imgur.com/Pyt9duv.jpg

The.Girl.With.All.The.Gifts.2016.HDRip.XVID.AC3.HQ.Hive-CM8

Thx Hive

CM8 Doing It Right The First Time

Sources:
Video: Russian Webrip/HDrip/Satrip whatever it is exactly, not sure
Audio: English Studio Audio
thx m8 for audio

Notes:
Happy New Years Release, first on the net in english, has nice ratings on imdb and is with Glenn Glose too
enjoy

Encode:
Russian Rip was nice, had a small logo top left-blurred, added brightess,contrast and fixed rgb
Synced English Audio to encode, got very nice
enjoy

Video: 720x352 @bitrate 1800 2pass
Audio: English Studio Audio AC3 2.0
Sample: yes included

PS: you wanted scr right,well us too, pics everywhere but need the people to contact us who actually >>
have them.
    they dont appear from itself. you want to contribute for the majority, well here is your chance to >>
make a difference.

PS2: forgot to mention the subs from assassin were stripped from cpg release retimed to fit on ours. thx

http://www.imdb.com/title/tt4547056/

General
Complete name                  : The.Girl.With.All.The.Gifts.2016.HDRip.XVID.AC3.HQ.Hive-CM8.avi
Format                         : AVI
Format/Info                    : Audio Video Interleave
File size                      : 1.53 GiB
Duration                       : 1h 45mn
Overall bit rate               : 2 064 Kbps
Writing application            : Nandub v1.0rc2
Writing library                : Nandub build 1853/release

Video
ID                             : 0
Format                         : MPEG-4 Visual
Format profile                 : Advanced Simple@L5
Format settings, BVOP          : 2
Format settings, QPel          : Yes
Format settings, GMC           : No warppoints
Format settings, Matrix        : Default (H.263)
Muxing mode                    : Packed bitstream
Codec ID                       : XVID
Codec ID/Hint                  : XviD
Duration                       : 1h 45mn
Bit rate                       : 1 799 Kbps
Width                          : 720 pixels
Height                         : 352 pixels
Display aspect ratio           : 2.045
Frame rate                     : 23.976 fps
Color space                    : YUV
Chroma subsampling             : 4:2:0
Bit depth                      : 8 bits
Scan type                      : Progressive
Compression mode               : Lossy
Bits/(Pixel*Frame)             : 0.296
Stream size                    : 1.33 GiB (87%)
Writing library                : XviD 1.2.1 (UTC 2008-12-04)

Audio
ID                             : 1
Format                         : AC-3
Format/Info                    : Audio Coding 3
Mode extension                 : CM (complete main)
Format settings, Endianness    : Big
Codec ID                       : 2000
Duration                       : 1h 45mn
Bit rate mode                  : Constant
Bit rate                       : 256 Kbps
Channel(s)                     : 2 channels
Channel positions              : Front: L R
Sampling rate                  : 48.0 KHz
Bit depth                      : 16 bits
Compression mode               : Lossy
Stream size                    : 194 MiB (12%)
Alignment                      : Split accross interleaves
Interleave, duration           : 42 ms (1.00 video frame)
Interleave, preload duration   : 500 ms

Screens

http://i.imgur.com/VDtNK6F.png
http://i.imgur.com/CDNuj4a.png
http://i.imgur.com/zTd88Hs.png
http://i.imgur.com/SOlbIbX.png
http://i.imgur.com/2DY32PS.png
http://i.imgur.com/PtgFKDJ.png

Plot

A scientist and a teacher living in a dystopian future embark on a journey of survival with a special >>
young girl named Melanie.

Cast overview, first billed only:

Gemma Arterton          ...  Helen Justineau
Glenn Close            ...  Dr. Caroline Caldwell
Anamaria Marinca  ...  Dr. Selkirk
Dominique Tipper  ...  Devani
Paddy Considine   ...  Sgt. Eddie Parks
Sennia Nanua            ...  Melanie
Daniel Eghan            ...  Soldier
Lobna Futers            ...  Hungry
Anthony Welsh            ...  Dillon
Fisayo Akinade    ...  Kieran Gallagher
Elise Reed            ...  Aarra - Feral Child
Stacey Lynn Crowe ...  Hungry
Tessa Morris            ...  Rat Girl
Ross Green            ...  Hungries
Amy Floyd            ...  Hungry

LOOKING FOR SCREENER GUYS msg us cm8crew@hushmail.com

COME FIND US WE DONT BITE


This NFO File was rendered by NFOmation.net

http://i.imgur.com/Pyt9duv.jpg

The.Girl.With.All.The.Gifts.2016.HDRip.XVID.AC3.HQ.Hive-CM8

Thx Hive

CM8 Doing It Right The First Time

Sources:
Video: Russian Webrip/HDrip/Satrip whatever it is exactly, not sure
Audio: English Studio Audio
thx m8 for audio

Notes:
Happy New Years Release, first on the net in english, has nice ratings on imdb and is with Glenn Glose too
enjoy

Encode:
Russian Rip was nice, had a small logo top left-blurred, added brightess,contrast and fixed rgb
Synced English Audio to encode, got very nice
enjoy

Video: 720x352 @bitrate 1800 2pass
Audio: English Studio Audio AC3 2.0
Sample: yes included

PS: you wanted scr right,well us too, pics everywhere but need the people to contact us who actually >>
have them.
    they dont appear from itself. you want to contribute for the majority, well here is your chance to >>
make a difference.

PS2: forgot to mention the subs from assassin were stripped from cpg release retimed to fit on ours. thx

http://www.imdb.com/title/tt4547056/

General
Complete name                  : The.Girl.With.All.The.Gifts.2016.HDRip.XVID.AC3.HQ.Hive-CM8.avi
Format                         : AVI
Format/Info                    : Audio Video Interleave
File size                      : 1.53 GiB
Duration                       : 1h 45mn
Overall bit rate               : 2 064 Kbps
Writing application            : Nandub v1.0rc2
Writing library                : Nandub build 1853/release

Video
ID                             : 0
Format                         : MPEG-4 Visual
Format profile                 : Advanced Simple@L5
Format settings, BVOP          : 2
Format settings, QPel          : Yes
Format settings, GMC           : No warppoints
Format settings, Matrix        : Default (H.263)
Muxing mode                    : Packed bitstream
Codec ID                       : XVID
Codec ID/Hint                  : XviD
Duration                       : 1h 45mn
Bit rate                       : 1 799 Kbps
Width                          : 720 pixels
Height                         : 352 pixels
Display aspect ratio           : 2.045
Frame rate                     : 23.976 fps
Color space                    : YUV
Chroma subsampling             : 4:2:0
Bit depth                      : 8 bits
Scan type                      : Progressive
Compression mode               : Lossy
Bits/(Pixel*Frame)             : 0.296
Stream size                    : 1.33 GiB (87%)
Writing library                : XviD 1.2.1 (UTC 2008-12-04)

Audio
ID                             : 1
Format                         : AC-3
Format/Info                    : Audio Coding 3
Mode extension                 : CM (complete main)
Format settings, Endianness    : Big
Codec ID                       : 2000
Duration                       : 1h 45mn
Bit rate mode                  : Constant
Bit rate                       : 256 Kbps
Channel(s)                     : 2 channels
Channel positions              : Front: L R
Sampling rate                  : 48.0 KHz
Bit depth                      : 16 bits
Compression mode               : Lossy
Stream size                    : 194 MiB (12%)
Alignment                      : Split accross interleaves
Interleave, duration           : 42 ms (1.00 video frame)
Interleave, preload duration   : 500 ms

Screens

http://i.imgur.com/VDtNK6F.png
http://i.imgur.com/CDNuj4a.png
http://i.imgur.com/zTd88Hs.png
http://i.imgur.com/SOlbIbX.png
http://i.imgur.com/2DY32PS.png
http://i.imgur.com/PtgFKDJ.png

Plot

A scientist and a teacher living in a dystopian future embark on a journey of survival with a special >>
young girl named Melanie.

Cast overview, first billed only:

Gemma Arterton          ...  Helen Justineau
Glenn Close            ...  Dr. Caroline Caldwell
Anamaria Marinca  ...  Dr. Selkirk
Dominique Tipper  ...  Devani
Paddy Considine   ...  Sgt. Eddie Parks
Sennia Nanua            ...  Melanie
Daniel Eghan            ...  Soldier
Lobna Futers            ...  Hungry
Anthony Welsh            ...  Dillon
Fisayo Akinade    ...  Kieran Gallagher
Elise Reed            ...  Aarra - Feral Child
Stacey Lynn Crowe ...  Hungry
Tessa Morris            ...  Rat Girl
Ross Green            ...  Hungries
Amy Floyd            ...  Hungry

LOOKING FOR SCREENER GUYS msg us cm8crew@hushmail.com

COME FIND US WE DONT BITE


This NFO File was rendered by NFOmation.net


Bookmark and Share

<Mascot>
[ Sitemap ]

aa21