NFOmation.net - Your Ultimate NFO Upload Resource! Viewing NFO file: Fences.2016.DVD.Screener.DiVx-UnKnOwN.nfo Fences.2016.DVD.Screener.DiVx-UnKnOwN

General
Complete name               : Fences.2016.DVD.Screener.DiVx-UnKnOwN.avi
Format                      : AVI
Format/Info                 : Audio Video Interleave
File size                   : 2.09 GiB
Duration                    : 2 h 18 min
Overall bit rate            : 2 157 kb/s

Video
ID                          : 0
Format                      : MPEG-4 Visual
Format profile              : Advanced Simple@L4
Format settings, BVOP       : 2
Format settings, QPel       : No
Format settings, GMC        : No warppoints
Format settings, Matrix     : Default (H.263)
Codec ID                    : DIVX
Codec ID/Info               : Project Mayo
Codec ID/Hint               : DivX 4
Duration                    : 2 h 18 min
Bit rate                    : 1 697 kb/s
Width                       : 720 pixels
Height                      : 304 pixels
Display aspect ratio        : 2.35:1
Frame rate                  : 29.970 (30000/1001) FPS
Color space                 : YUV
Chroma subsampling          : 4:2:0
Bit depth                   : 8 bits
Scan type                   : Progressive
Compression mode            : Lossy
Bits/(Pixel*Frame)          : 0.259
Stream size                 : 1.65 GiB (79%)
Writing library             : XviD 64

Audio
ID                          : 1
Format                      : AC-3
Format/Info                 : Audio Coding 3
Mode extension              : CM (complete main)
Format settings, Endianness : Big
Codec ID                    : 2000
Duration                    : 2 h 18 min
Bit rate mode               : Constant
Bit rate                    : 448 kb/s
Channel(s)                  : 6 channels
Channel positions           : Front: L C R, Side: L R, LFE
Sampling rate               : 48.0 kHz
Frame rate                  : 31.250 FPS (1536 spf)
Bit depth                   : 16 bits
Compression mode            : Lossy
Stream size                 : 445 MiB (21%)
Alignment                   : Aligned on interleaves
Interleave, duration        : 32  ms (0.96 video frame)



This NFO File was rendered by NFOmation.net

General
Complete name               : Fences.2016.DVD.Screener.DiVx-UnKnOwN.avi
Format                      : AVI
Format/Info                 : Audio Video Interleave
File size                   : 2.09 GiB
Duration                    : 2 h 18 min
Overall bit rate            : 2 157 kb/s

Video
ID                          : 0
Format                      : MPEG-4 Visual
Format profile              : Advanced Simple@L4
Format settings, BVOP       : 2
Format settings, QPel       : No
Format settings, GMC        : No warppoints
Format settings, Matrix     : Default (H.263)
Codec ID                    : DIVX
Codec ID/Info               : Project Mayo
Codec ID/Hint               : DivX 4
Duration                    : 2 h 18 min
Bit rate                    : 1 697 kb/s
Width                       : 720 pixels
Height                      : 304 pixels
Display aspect ratio        : 2.35:1
Frame rate                  : 29.970 (30000/1001) FPS
Color space                 : YUV
Chroma subsampling          : 4:2:0
Bit depth                   : 8 bits
Scan type                   : Progressive
Compression mode            : Lossy
Bits/(Pixel*Frame)          : 0.259
Stream size                 : 1.65 GiB (79%)
Writing library             : XviD 64

Audio
ID                          : 1
Format                      : AC-3
Format/Info                 : Audio Coding 3
Mode extension              : CM (complete main)
Format settings, Endianness : Big
Codec ID                    : 2000
Duration                    : 2 h 18 min
Bit rate mode               : Constant
Bit rate                    : 448 kb/s
Channel(s)                  : 6 channels
Channel positions           : Front: L C R, Side: L R, LFE
Sampling rate               : 48.0 kHz
Frame rate                  : 31.250 FPS (1536 spf)
Bit depth                   : 16 bits
Compression mode            : Lossy
Stream size                 : 445 MiB (21%)
Alignment                   : Aligned on interleaves
Interleave, duration        : 32  ms (0.96 video frame)



This NFO File was rendered by NFOmation.net


Bookmark and Share

<Mascot>
[ Sitemap ]

aa21