NFOmation.net - Your Ultimate NFO Upload Resource! Viewing NFO file: Glory.1989.REMASTERED.BDRip.x264-VoMiT.nfo Glory.1989.REMASTERED.BDRip.x264-VoMiT

General
Unique ID                   : 213022402353714008117452569867349267038 (0xA0429F52731EAD75ABB7EFF36B1A125E)
Complete name               : Glory.1989.REMASTERED.BDRip.x264-VoMiT.mkv
Format                      : Matroska
Format version              : Version 4 / Version 2
File size                   : 1.29 GiB
Duration                    : 2 h 2 min
Overall bit rate            : 1 509 kb/s
Encoded date                : UTC 2017-01-02 01:30:47
Writing application         : mkvmerge v9.6.0 ('Slave To Your Mind') 64bit
Writing library             : libebml v1.3.4 + libmatroska v1.4.5

Video
ID                          : 1
Format                      : AVC
Format/Info                 : Advanced Video Codec
Format profile              : High@L3.1
Format settings, CABAC      : Yes
Format settings, ReFrames   : 5 frames
Codec ID                    : V_MPEG4/ISO/AVC
Duration                    : 2 h 2 min
Bit rate                    : 1 364 kb/s
Width                       : 720 pixels
Height                      : 388 pixels
Display aspect ratio        : 1.85:1
Frame rate mode             : Constant
Frame rate                  : 23.976 (24000/1001) FPS
Color space                 : YUV
Chroma subsampling          : 4:2:0
Bit depth                   : 8 bits
Scan type                   : Progressive
Bits/(Pixel*Frame)          : 0.204
Stream size                 : 1.16 GiB (90%)
Writing library             : x264 core 148 r2744 b97ae06
Encoding settings           : cabac=1 / ref=5 / deblock=1:-3:-3 / analyse=0x3:0x113 / me=umh / subme=8 >>
/ psy=1 / psy_rd=1.00:0.25 / mixed_ref=1 / me_range=24 / chroma_me=1 / trellis=2 / 8x8dct=1 / cqm=0 / >>
deadzone=21,11 / fast_pskip=1 / chroma_qp_offset=-4 / threads=12 / lookahead_threads=2 / sliced_threads=0 >>
/ nr=0 / decimate=1 / interlaced=0 / bluray_compat=0 / constrained_intra=0 / bframes=3 / b_pyramid=2 >>
/ b_adapt=1 / b_bias=0 / direct=3 / weightb=1 / open_gop=0 / weightp=2 / keyint=240 / keyint_min=24 / >>
scenecut=40 / intra_refresh=0 / rc_lookahead=50 / rc=crf / mbtree=1 / crf=19.0 / qcomp=0.60 / qpmin=0 >>
/ qpmax=69 / qpstep=4 / ip_ratio=1.40 / aq=1:0.75
Default                     : Yes
Forced                      : No
Color range                 : Limited
Matrix coefficients         : BT.709

Audio
ID                          : 2
Format                      : AAC
Format/Info                 : Advanced Audio Codec
Format profile              : LC
Codec ID                    : A_AAC
Duration                    : 2 h 2 min
Bit rate                    : 144 kb/s
Channel(s)                  : 2 channels
Channel positions           : Front: L R
Sampling rate               : 48.0 kHz
Frame rate                  : 46.875 FPS (1024 spf)
Compression mode            : Lossy
Delay relative to video     : 9 ms
Stream size                 : 124 MiB (9%)
Language                    : English
Default                     : Yes
Forced                      : No

Menu
00:00:00.000                : en:00:00:00.000
00:08:28.049                : en:00:08:28.049
00:17:17.828                : en:00:17:17.828
00:21:55.022                : en:00:21:55.022
00:29:55.252                : en:00:29:55.252
00:36:53.461                : en:00:36:53.461
00:50:45.709                : en:00:50:45.709
00:56:42.733                : en:00:56:42.733
01:04:52.722                : en:01:04:52.722
01:12:09.617                : en:01:12:09.617
01:17:47.538                : en:01:17:47.538
01:27:55.687                : en:01:27:55.687
01:36:09.889                : en:01:36:09.889
01:42:32.438                : en:01:42:32.438
01:48:20.577                : en:01:48:20.577
01:52:35.916                : en:01:52:35.916



This NFO File was rendered by NFOmation.net

General
Unique ID                   : 213022402353714008117452569867349267038 (0xA0429F52731EAD75ABB7EFF36B1A125E)
Complete name               : Glory.1989.REMASTERED.BDRip.x264-VoMiT.mkv
Format                      : Matroska
Format version              : Version 4 / Version 2
File size                   : 1.29 GiB
Duration                    : 2 h 2 min
Overall bit rate            : 1 509 kb/s
Encoded date                : UTC 2017-01-02 01:30:47
Writing application         : mkvmerge v9.6.0 ('Slave To Your Mind') 64bit
Writing library             : libebml v1.3.4 + libmatroska v1.4.5

Video
ID                          : 1
Format                      : AVC
Format/Info                 : Advanced Video Codec
Format profile              : High@L3.1
Format settings, CABAC      : Yes
Format settings, ReFrames   : 5 frames
Codec ID                    : V_MPEG4/ISO/AVC
Duration                    : 2 h 2 min
Bit rate                    : 1 364 kb/s
Width                       : 720 pixels
Height                      : 388 pixels
Display aspect ratio        : 1.85:1
Frame rate mode             : Constant
Frame rate                  : 23.976 (24000/1001) FPS
Color space                 : YUV
Chroma subsampling          : 4:2:0
Bit depth                   : 8 bits
Scan type                   : Progressive
Bits/(Pixel*Frame)          : 0.204
Stream size                 : 1.16 GiB (90%)
Writing library             : x264 core 148 r2744 b97ae06
Encoding settings           : cabac=1 / ref=5 / deblock=1:-3:-3 / analyse=0x3:0x113 / me=umh / subme=8 >>
/ psy=1 / psy_rd=1.00:0.25 / mixed_ref=1 / me_range=24 / chroma_me=1 / trellis=2 / 8x8dct=1 / cqm=0 / >>
deadzone=21,11 / fast_pskip=1 / chroma_qp_offset=-4 / threads=12 / lookahead_threads=2 / sliced_threads=0 >>
/ nr=0 / decimate=1 / interlaced=0 / bluray_compat=0 / constrained_intra=0 / bframes=3 / b_pyramid=2 >>
/ b_adapt=1 / b_bias=0 / direct=3 / weightb=1 / open_gop=0 / weightp=2 / keyint=240 / keyint_min=24 / >>
scenecut=40 / intra_refresh=0 / rc_lookahead=50 / rc=crf / mbtree=1 / crf=19.0 / qcomp=0.60 / qpmin=0 >>
/ qpmax=69 / qpstep=4 / ip_ratio=1.40 / aq=1:0.75
Default                     : Yes
Forced                      : No
Color range                 : Limited
Matrix coefficients         : BT.709

Audio
ID                          : 2
Format                      : AAC
Format/Info                 : Advanced Audio Codec
Format profile              : LC
Codec ID                    : A_AAC
Duration                    : 2 h 2 min
Bit rate                    : 144 kb/s
Channel(s)                  : 2 channels
Channel positions           : Front: L R
Sampling rate               : 48.0 kHz
Frame rate                  : 46.875 FPS (1024 spf)
Compression mode            : Lossy
Delay relative to video     : 9 ms
Stream size                 : 124 MiB (9%)
Language                    : English
Default                     : Yes
Forced                      : No

Menu
00:00:00.000                : en:00:00:00.000
00:08:28.049                : en:00:08:28.049
00:17:17.828                : en:00:17:17.828
00:21:55.022                : en:00:21:55.022
00:29:55.252                : en:00:29:55.252
00:36:53.461                : en:00:36:53.461
00:50:45.709                : en:00:50:45.709
00:56:42.733                : en:00:56:42.733
01:04:52.722                : en:01:04:52.722
01:12:09.617                : en:01:12:09.617
01:17:47.538                : en:01:17:47.538
01:27:55.687                : en:01:27:55.687
01:36:09.889                : en:01:36:09.889
01:42:32.438                : en:01:42:32.438
01:48:20.577                : en:01:48:20.577
01:52:35.916                : en:01:52:35.916



This NFO File was rendered by NFOmation.net


Bookmark and Share

<Mascot>
[ Sitemap ]

aa21