NFOmation.net - Your Ultimate NFO Upload Resource! Viewing NFO file: War.on.Everyone.2016.1080p.WEB-DL.DD5.1.H264-FGT.nfo War.on.Everyone.2016.1080p.WEB-DL.DD5.1.H264-FGT

http://imagecurl.com/images/ >>
3147819628355855612_thumb.png
http://imagecurl.com/images/ >>
4354071725590978390_thumb.png
http://imagecurl.com/images/ >>
8551726647805092636_thumb.png
http://imagecurl.com/images/ >>
8463947739568188741_thumb.png
http://imagecurl.com/images/ >>
3527703997523077021_thumb.png
http://imagecurl.com/images/ >>
2335478785114388943_thumb.png

[mediainfo]
Video
ID                                       : 1
Format                                   : AVC
Format/Info                              : Advanced Video Codec
Format profile                           : High@L4
Format settings, CABAC                   : Yes
Format settings, ReFrames                : 5 frames
Format settings, GOP                     : N=1
Codec ID                                 : V_MPEG4/ISO/AVC
Duration                                 : 1h 37mn
Bit rate                                 : 4 459 Kbps
Width                                    : 1 920 pixels
Height                                   : 796 pixels
Display aspect ratio                     : 2.40:1
Frame rate mode                          : Constant
Frame rate                               : 24.000 fps
Color space                              : YUV
Chroma subsampling                       : 4:2:0
Bit depth                                : 8 bits
Scan type                                : Progressive
Bits/(Pixel*Frame)                       : 0.122
Stream size                              : 3.04 GiB (90%)
Title                                    : War.on.Everyone.2016.1080p.WEB-DL.DD5.1.H264-FGT
Language                                 : English
Default                                  : Yes
Forced                                   : No
Color range                              : Limited
Color primaries                          : BT.709
Transfer characteristics                 : BT.709
Matrix coefficients                      : BT.709

Audio
ID                                       : 2
Format                                   : AC-3
Format/Info                              : Audio Coding 3
Mode extension                           : CM (complete main)
Format settings, Endianness              : Big
Codec ID                                 : A_AC3
Duration                                 : 1h 37mn
Bit rate mode                            : Constant
Bit rate                                 : 384 Kbps
Channel(s)                               : 6 channels
Channel positions                        : Front: L C R, Side: L R, LFE
Sampling rate                            : 48.0 KHz
Frame rate                               : 31.250 fps (1536 spf)
Compression mode                         : Lossy
Stream size                              : 268 MiB (8%)
Title                                    : War.on.Everyone.2016.1080p.WEB-DL.DD5.1.H264-FGT
Language                                 : English
Default                                  : Yes
Forced                                   : No

Menu
00:00:00.000                             : en:1
00:14:21.486                             : en:2
00:30:15.189                             : en:3
00:46:31.957                             : en:4
01:01:36.361                             : en:5
01:16:04.562                             : en:6
01:33:24.852                             : en:7

[/mediainfo]



This NFO File was rendered by NFOmation.net

http://imagecurl.com/images/ >>
3147819628355855612_thumb.png
http://imagecurl.com/images/ >>
4354071725590978390_thumb.png
http://imagecurl.com/images/ >>
8551726647805092636_thumb.png
http://imagecurl.com/images/ >>
8463947739568188741_thumb.png
http://imagecurl.com/images/ >>
3527703997523077021_thumb.png
http://imagecurl.com/images/ >>
2335478785114388943_thumb.png

[mediainfo]
Video
ID                                       : 1
Format                                   : AVC
Format/Info                              : Advanced Video Codec
Format profile                           : High@L4
Format settings, CABAC                   : Yes
Format settings, ReFrames                : 5 frames
Format settings, GOP                     : N=1
Codec ID                                 : V_MPEG4/ISO/AVC
Duration                                 : 1h 37mn
Bit rate                                 : 4 459 Kbps
Width                                    : 1 920 pixels
Height                                   : 796 pixels
Display aspect ratio                     : 2.40:1
Frame rate mode                          : Constant
Frame rate                               : 24.000 fps
Color space                              : YUV
Chroma subsampling                       : 4:2:0
Bit depth                                : 8 bits
Scan type                                : Progressive
Bits/(Pixel*Frame)                       : 0.122
Stream size                              : 3.04 GiB (90%)
Title                                    : War.on.Everyone.2016.1080p.WEB-DL.DD5.1.H264-FGT
Language                                 : English
Default                                  : Yes
Forced                                   : No
Color range                              : Limited
Color primaries                          : BT.709
Transfer characteristics                 : BT.709
Matrix coefficients                      : BT.709

Audio
ID                                       : 2
Format                                   : AC-3
Format/Info                              : Audio Coding 3
Mode extension                           : CM (complete main)
Format settings, Endianness              : Big
Codec ID                                 : A_AC3
Duration                                 : 1h 37mn
Bit rate mode                            : Constant
Bit rate                                 : 384 Kbps
Channel(s)                               : 6 channels
Channel positions                        : Front: L C R, Side: L R, LFE
Sampling rate                            : 48.0 KHz
Frame rate                               : 31.250 fps (1536 spf)
Compression mode                         : Lossy
Stream size                              : 268 MiB (8%)
Title                                    : War.on.Everyone.2016.1080p.WEB-DL.DD5.1.H264-FGT
Language                                 : English
Default                                  : Yes
Forced                                   : No

Menu
00:00:00.000                             : en:1
00:14:21.486                             : en:2
00:30:15.189                             : en:3
00:46:31.957                             : en:4
01:01:36.361                             : en:5
01:16:04.562                             : en:6
01:33:24.852                             : en:7

[/mediainfo]



This NFO File was rendered by NFOmation.net


Bookmark and Share

<Mascot>
[ Sitemap ]

aa21