NFOmation.net - Your Ultimate NFO Upload Resource! Viewing NFO file: Ouija.Origin.of.Evil.2016.WEB-DL.x264-FGT.nfo Ouija.Origin.of.Evil.2016.WEB-DL.x264-FGT

General
Complete name               : Ouija.Origin.of.Evil.2016.WEB-DL.x264-FGT
Format                      : MPEG-4
Format profile              : Base Media
Codec ID                    : isom (isom/iso2/avc1/mp41)
File size                   : 878 MiB
Duration                    : 1 h 38 min
Overall bit rate mode       : Variable
Overall bit rate            : 1 240 kb/s
Movie name                  : Ouija.Origin.of.Evil.2016.WEB-DL.x264-FGT
Writing application         : Lavf57.19.100
Comment                     : Ouija.Origin.of.Evil.2016.WEB-DL.x264-FGT

Video
ID                          : 1
Format                      : AVC
Format/Info                 : Advanced Video Codec
Format profile              : High@L3.1
Format settings, CABAC      : Yes
Format settings, ReFrames   : 5 frames
Codec ID                    : avc1
Codec ID/Info               : Advanced Video Coding
Duration                    : 1 h 38 min
Bit rate                    : 1 100 kb/s
Width                       : 720 pixels
Height                      : 384 pixels
Display aspect ratio        : 1.85:1
Original display aspect rat : 1.85:1
Frame rate mode             : Constant
Frame rate                  : 23.976 (23976/1000) FPS
Color space                 : YUV
Chroma subsampling          : 4:2:0
Bit depth                   : 8 bits
Scan type                   : Progressive
Bits/(Pixel*Frame)          : 0.166
Stream size                 : 782 MiB (89%)
Title                       : Ouija.Origin.of.Evil.2016.WEB-DL.x264-FGT
Writing library             : x264 core 148 r2597M e86f3a1
Encoding settings           : cabac=1 / ref=5 / deblock=1:-2:-2 / analyse=0x3:0x113 / me=umh / subme=8 >>
/ psy=1 / psy_rd=0.90:0.00 / mixed_ref=1 / me_range=16 / chroma_me=1 / trellis=1 / 8x8dct=1 / cqm=0 / >>
deadzone=21,11 / fast_pskip=1 / chroma_qp_offset=-2 / threads=40 / lookahead_threads=6 / sliced_threads=0 >>
/ nr=0 / decimate=1 / interlaced=0 / bluray_compat=0 / constrained_intra=0 / bframes=3 / b_pyramid=2 >>
/ b_adapt=2 / b_bias=0 / direct=3 / weightb=1 / open_gop=0 / weightp=2 / keyint=250 / keyint_min=25 / >>
scenecut=40 / intra_refresh=0 / rc_lookahead=50 / rc=abr / mbtree=1 / bitrate=1100 / ratetol=1.0 / >>
qcomp=0.60 / qpmin=0 / qpmax=69 / qpstep=4 / vbv_maxrate=31250 / vbv_bufsize=31250 / nal_hrd=none / filler=0 >>
/ ip_ratio=1.40 / aq=1:1.00
Language                    : English

Audio
ID                          : 2
Format                      : AAC
Format/Info                 : Advanced Audio Codec
Format profile              : LC
Codec ID                    : 40
Duration                    : 1 h 38 min
Bit rate mode               : Variable
Bit rate                    : 128 kb/s
Maximum bit rate            : 31.3 Mb/s
Channel(s)                  : 2 channels
Channel positions           : Front: L R
Sampling rate               : 48.0 kHz
Frame rate                  : 46.875 FPS (1024 spf)
Compression mode            : Lossy
Stream size                 : 90.6 MiB (10%)
Title                       : Ouija.Origin.of.Evil.2016.WEB-DL.x264-FGT
Language                    : English
Default                     : Yes
Alternate group             : 1



This NFO File was rendered by NFOmation.net

General
Complete name               : Ouija.Origin.of.Evil.2016.WEB-DL.x264-FGT
Format                      : MPEG-4
Format profile              : Base Media
Codec ID                    : isom (isom/iso2/avc1/mp41)
File size                   : 878 MiB
Duration                    : 1 h 38 min
Overall bit rate mode       : Variable
Overall bit rate            : 1 240 kb/s
Movie name                  : Ouija.Origin.of.Evil.2016.WEB-DL.x264-FGT
Writing application         : Lavf57.19.100
Comment                     : Ouija.Origin.of.Evil.2016.WEB-DL.x264-FGT

Video
ID                          : 1
Format                      : AVC
Format/Info                 : Advanced Video Codec
Format profile              : High@L3.1
Format settings, CABAC      : Yes
Format settings, ReFrames   : 5 frames
Codec ID                    : avc1
Codec ID/Info               : Advanced Video Coding
Duration                    : 1 h 38 min
Bit rate                    : 1 100 kb/s
Width                       : 720 pixels
Height                      : 384 pixels
Display aspect ratio        : 1.85:1
Original display aspect rat : 1.85:1
Frame rate mode             : Constant
Frame rate                  : 23.976 (23976/1000) FPS
Color space                 : YUV
Chroma subsampling          : 4:2:0
Bit depth                   : 8 bits
Scan type                   : Progressive
Bits/(Pixel*Frame)          : 0.166
Stream size                 : 782 MiB (89%)
Title                       : Ouija.Origin.of.Evil.2016.WEB-DL.x264-FGT
Writing library             : x264 core 148 r2597M e86f3a1
Encoding settings           : cabac=1 / ref=5 / deblock=1:-2:-2 / analyse=0x3:0x113 / me=umh / subme=8 >>
/ psy=1 / psy_rd=0.90:0.00 / mixed_ref=1 / me_range=16 / chroma_me=1 / trellis=1 / 8x8dct=1 / cqm=0 / >>
deadzone=21,11 / fast_pskip=1 / chroma_qp_offset=-2 / threads=40 / lookahead_threads=6 / sliced_threads=0 >>
/ nr=0 / decimate=1 / interlaced=0 / bluray_compat=0 / constrained_intra=0 / bframes=3 / b_pyramid=2 >>
/ b_adapt=2 / b_bias=0 / direct=3 / weightb=1 / open_gop=0 / weightp=2 / keyint=250 / keyint_min=25 / >>
scenecut=40 / intra_refresh=0 / rc_lookahead=50 / rc=abr / mbtree=1 / bitrate=1100 / ratetol=1.0 / >>
qcomp=0.60 / qpmin=0 / qpmax=69 / qpstep=4 / vbv_maxrate=31250 / vbv_bufsize=31250 / nal_hrd=none / filler=0 >>
/ ip_ratio=1.40 / aq=1:1.00
Language                    : English

Audio
ID                          : 2
Format                      : AAC
Format/Info                 : Advanced Audio Codec
Format profile              : LC
Codec ID                    : 40
Duration                    : 1 h 38 min
Bit rate mode               : Variable
Bit rate                    : 128 kb/s
Maximum bit rate            : 31.3 Mb/s
Channel(s)                  : 2 channels
Channel positions           : Front: L R
Sampling rate               : 48.0 kHz
Frame rate                  : 46.875 FPS (1024 spf)
Compression mode            : Lossy
Stream size                 : 90.6 MiB (10%)
Title                       : Ouija.Origin.of.Evil.2016.WEB-DL.x264-FGT
Language                    : English
Default                     : Yes
Alternate group             : 1



This NFO File was rendered by NFOmation.net


Bookmark and Share

<Mascot>
[ Sitemap ]

aa21