NFOmation.net - Your Ultimate NFO Upload Resource! Viewing NFO file: Ouija.Origin.of.Evil.2016.720p.WEB-DL.XviD.MP3-FGT.nfo Ouija.Origin.of.Evil.2016.720p.WEB-DL.XviD.MP3-FGT

General
Complete name               : Ouija.Origin.of.Evil.2016.720p.WEB-DL.XviD.MP3-FGT
Format                      : AVI
Format/Info                 : Audio Video Interleave
Format profile              : OpenDML
File size                   : 3.22 GiB
Duration                    : 1 h 38 min
Overall bit rate            : 4 659 kb/s
Movie name                  : Ouija.Origin.of.Evil.2016.720p.WEB-DL.XviD.MP3-FGT
Writing library             : VirtualDub build 35491/release
Comment                     : Ouija.Origin.of.Evil.2016.720p.WEB-DL.XviD.MP3-FGT

Video
ID                          : 0
Format                      : MPEG-4 Visual
Format profile              : Simple@L5
Format settings, BVOP       : No
Format settings, QPel       : No
Format settings, GMC        : No warppoints
Format settings, Matrix     : Default (H.263)
Codec ID                    : XVID
Codec ID/Hint               : XviD
Duration                    : 1 h 38 min
Bit rate                    : 4 453 kb/s
Width                       : 1 280 pixels
Height                      : 690 pixels
Display aspect ratio        : 1.85:1
Frame rate                  : 23.976 (24000/1001) FPS
Color space                 : YUV
Chroma subsampling          : 4:2:0
Bit depth                   : 8 bits
Scan type                   : Progressive
Compression mode            : Lossy
Bits/(Pixel*Frame)          : 0.210
Stream size                 : 3.08 GiB (96%)
Writing library             : Lavc57.24.102

Audio
ID                          : 1
Format                      : MPEG Audio
Format version              : Version 1
Format profile              : Layer 3
Mode                        : Joint stereo
Codec ID                    : 55
Codec ID/Hint               : MP3
Duration                    : 1 h 38 min
Bit rate mode               : Constant
Bit rate                    : 192 kb/s
Channel(s)                  : 2 channels
Sampling rate               : 48.0 kHz
Compression mode            : Lossy
Stream size                 : 136 MiB (4%)
Alignment                   : Aligned on interleaves
Interleave, duration        : 24  ms (0.58 video frame)
Interleave, preload duratio : 504  ms
Writing library             : LAME3.99.5



This NFO File was rendered by NFOmation.net

General
Complete name               : Ouija.Origin.of.Evil.2016.720p.WEB-DL.XviD.MP3-FGT
Format                      : AVI
Format/Info                 : Audio Video Interleave
Format profile              : OpenDML
File size                   : 3.22 GiB
Duration                    : 1 h 38 min
Overall bit rate            : 4 659 kb/s
Movie name                  : Ouija.Origin.of.Evil.2016.720p.WEB-DL.XviD.MP3-FGT
Writing library             : VirtualDub build 35491/release
Comment                     : Ouija.Origin.of.Evil.2016.720p.WEB-DL.XviD.MP3-FGT

Video
ID                          : 0
Format                      : MPEG-4 Visual
Format profile              : Simple@L5
Format settings, BVOP       : No
Format settings, QPel       : No
Format settings, GMC        : No warppoints
Format settings, Matrix     : Default (H.263)
Codec ID                    : XVID
Codec ID/Hint               : XviD
Duration                    : 1 h 38 min
Bit rate                    : 4 453 kb/s
Width                       : 1 280 pixels
Height                      : 690 pixels
Display aspect ratio        : 1.85:1
Frame rate                  : 23.976 (24000/1001) FPS
Color space                 : YUV
Chroma subsampling          : 4:2:0
Bit depth                   : 8 bits
Scan type                   : Progressive
Compression mode            : Lossy
Bits/(Pixel*Frame)          : 0.210
Stream size                 : 3.08 GiB (96%)
Writing library             : Lavc57.24.102

Audio
ID                          : 1
Format                      : MPEG Audio
Format version              : Version 1
Format profile              : Layer 3
Mode                        : Joint stereo
Codec ID                    : 55
Codec ID/Hint               : MP3
Duration                    : 1 h 38 min
Bit rate mode               : Constant
Bit rate                    : 192 kb/s
Channel(s)                  : 2 channels
Sampling rate               : 48.0 kHz
Compression mode            : Lossy
Stream size                 : 136 MiB (4%)
Alignment                   : Aligned on interleaves
Interleave, duration        : 24  ms (0.58 video frame)
Interleave, preload duratio : 504  ms
Writing library             : LAME3.99.5



This NFO File was rendered by NFOmation.net


Bookmark and Share

<Mascot>
[ Sitemap ]

aa21