NFOmation.net - Your Ultimate NFO Upload Resource! Viewing NFO file: Billy_Lynn_s_Long_Halftime_Walk_2016_HDTC_UnKnOwN.nfo Billy_Lynn_s_Long_Halftime_Walk_2016_HDTC_UnKnOwN

╔═──────────────────────────────═══════════════───────────────────────────────═╗
║                                                                              ║
║ :::  :::    :::::    :::     :::   :::::      :::    :::     :::    :::::    ║
║ :::  :::   :::::::   :::    :::   :::::::    :::::   :::     :::   :::::::   ║
║ :::  :::  :::::::::  :::   :::   :::::::::  ::: :::  :::     :::  :::::::::  ║
║ :::  :::  :::   :::  :::  :::    :::   :::  ::: :::  :::     :::  :::   :::  ║
║ :::  :::  :::   :::  :::::::     :::   :::  ::: :::  :::     :::  :::   :::  ║
║ :::  :::  :::   :::  ::::::      :::   :::  ::: :::  :::  :  :::  :::   :::  ║
║ :::  :::  :::   :::  :::::::     :::   :::  ::: :::  ::: ::: :::  :::   :::  ║
║ :::  :::  :::   :::  :::  :::    :::   :::  ::: :::  ::: : : :::  :::   :::  ║
║ :::..:::  :::   :::  :::   :::   :::   :::  ::: :::  ::::: :::::  :::   :::  ║
║  ::::::   :::   :::  :::    :::  :::   :::   :::::   ::::: :::::  :::   :::  ║
║   ::::    :::   :::  :::     ::: :::   :::    :::    ::::   ::::  :::   :::  ║
╠═──────────────────────────────═══════════════───────────────────────────────═╣
║                                                                              ║
│╨ ╨ ╨ ╨ ╨ ╨ ╨ ╨ ╨ ╨ ╨ ╨ ╨ ╨ ╨ ╨ ╨  NOTES  ╨ ╨ ╨ ╨ ╨ ╨ ╨ ╨ ╨ ╨ ╨ ╨ ╨ ╨ ╨ ╨ ╨ ╨ │
│                                                                              │
│╨ ╨ ╨ ╨ ╨ ╨ ╨ ╨ ╨ ╨ ╨ ╨ ╨ ╨ ╨ ╨ ╨  NOTES  ╨ ╨ ╨ ╨ ╨ ╨ ╨ ╨ ╨ ╨ ╨ ╨ ╨ ╨ ╨ ╨ ╨ ╨ │
│                                                                              │
│                    Billy Lynn's Long Halftime Walk 2016 HDTC UnKnOwN         │
│                                                                              │
│ Encoded By .......:UnKnOwN                                                   │
│ Runtime ..........:1:32                                                      │
│ IMDb URL .........: http://www.imdb.com/title/tt2513074/                     │
│ Language .........:English                                                   │
│ File Size ........: 668 mb                                                   │
│ Release Date ......... 2016                                                  │
│ Source       Mr.Miyagi                                                       │
│ File Type    ......... mp4                                                   │
│ Genre        .........  Drama, War                                           │
│                                                                              │
│                                                                              │
│                                                                              │
│                                                                              │
│ Video                                                                        │
│ ID                          : 1                                              │
│ Format                      : AVC                                            │
│ Format/Info                 : Advanced Video Codec                           │
│ Format profile              : Main@L4                                        │
│ Format settings, CABAC      : Yes                                            │
│ Format settings, ReFrames   : 4 frames                                       │
│ Codec ID                    : avc1                                           │
│ Codec ID/Info               : Advanced Video Coding                          │
│ Duration                    : 1 h 40 min                                     │
│ Bit rate                    : 766 kb/s                                       │
│ Width                       : 720 pixels                                     │
│ Height                      : 366 pixels                                     │
│ Display aspect ratio        : 1.967                                          │
│ Frame rate mode             : Constant                                       │
│ Frame rate                  : 25.000 FPS                                     │
│ Color space                 : YUV                                            │
│ Chroma subsampling          : 4:2:0                                          │
│ Bit depth                   : 8 bits                                         │
│ Scan type                   : Progressive                                    │
│ Bits/(Pixel*Frame)          : 0.116                                          │
│ Stream size                 : 548 MiB (82%)                                  │
│ Writing library             : x264 core 142 r2479 dd79a61                    │
│ Encoding settings           : cabac=1 / ref=1 / deblock=1:0:0 / analyse=0    │
│ Color range                 : Limited                                        │
│ Color primaries             : BT.601 PAL                                     │
│ Transfer characteristics    : BT.709                                         │
│ Matrix coefficients         : BT.601                                         │
│                                                                              │
│ Audio                                                                        │
│ ID                          : 2                                              │
│ Format                      : AAC                                            │
│ Format/Info                 : Advanced Audio Codec                           │
│ Format profile              : LC                                             │
│ Codec ID                    : 40                                             │
│ Duration                    : 1 h 40 min                                     │
│ Bit rate mode               : Constant                                       │
│ Bit rate                    : 160 kb/s                                       │
│ Channel(s)                  : 2 channels                                     │
│ Channel positions           : Front: L R                                     │
│ Sampling rate               : 48.0 kHz                                       │
│ Frame rate                  : 46.875 FPS (1024 spf)                          │
│ Compression mode            : Lossy                                          │
│ Stream size                 : 116 MiB (17%)                                  │
│ Language                    : English                                        │
│ Default                     : Yes                                            │
│ Alternate group             : 1                                              │
│                                                                              │
│                                                                              │
│                                                                              │
│                                                                              │
│                                                                              │
│                                                                              │
│                                                                              │
│                                                                              │
│                                                                              │
│                                                                              │
│                                                                              │
│                                                                              │
│                                                                              │
│                     Plot:                                                    │
│                   Check Imdb                                                 │
│                                                                              │
│                                                                              │
│                                                                              │
│                             RELEASE INFO                                     │
│                                                                              │
│                                                                              │
│                              Woot                                            │
│                                                                              │
╚══════════════════════════════════════════════════════════════════════════════╝
╔═╦═══════╗        ╔─╦──╦───╦────╦═───═╦═───═╦────╦───╦──╦─╗         ╔═══════╦═╗
╚╬╝       ╚─═════─═╝═╩══╩═══╩════╩═════╩═════╩════╩═══╩══╩═╚═─═════─═╝       ╚╬╝
 ║                                                                            ║
 ║                                LOOKING FOR                                 ║
 ║ Supplier                                                                   ║
 ║     ________                                                               ║
 ║                                                                            ║
 ║   Cammer wanted                                                            ║
 ║                                                                            ║
 ║  Unrelease Cam/TS/itunes movie/WEB-DL/Screener/DVD/Blueray                 ║
 ║   Uk and US cammers wanted                                                 ║
 ║   Need suppliers for audio and video                                       ║
 ║   and people who are good in searching shit from net                       ║
 ║                                                                            ║
 ║          UnKnOwN is back recruiting,if you have anything email us.         ║
 ║                                                                            ║
 ║                         unknownreleasegroup@gmail.com                      ║
 ║                                                                            ║
 ║                                                                            ║
╔╬╦══════════════════════════════════════════════════════════════════════════╦╬╗
╚╦╝ ╨ ╨ ╨ ╨ ╨ ╨ ╨ ╨ ╨ ╨ ╨ ╨ ╨ ╨ GREETZ & RESPECT ╨ ╨ ╨ ╨  ╨ ╨ ╨ ╨ ╨ ╨ ╨ ╨ ╨ ╨╚╦╝
 ╚═══════════════════════╦══════════════════════════════╦═════════════════════╝
                         ║ NOBODY YET WILL LET YOU KNOW ║
                         ║                              ║
                         ║ MORE GOODIES COMING REAL SOON║
                         ╚══════════════════════════════╝



This NFO File was rendered by NFOmation.net

ÉÍÄÄÄÄÄÄÄÄÄÄÄÄÄÄÄÄÄÄÄÄÄÄÄÄÄÄÄÄÄÄÍÍÍÍÍÍÍÍÍÍÍÍÍÍÍÄÄÄÄÄÄÄÄÄÄÄÄÄÄÄÄÄÄÄÄÄÄÄÄÄÄÄÄÄÄÄÍ»
º                                      ÿ                                       º
º :::  :::ÿ  ÿ:::::  ÿÿ:::ÿ   ÿ:::   :::::    ÿÿ:::ÿÿÿ :::     :::    :::::    º
º :::  :::ÿ  :::::::ÿÿÿ:::ÿ  ÿ:::   :::::::    :::::ÿÿ :::     :::   :::::::   º
º :::  :::ÿÿ:::::::::ÿÿ:::ÿÿÿ:::ÿÿÿ:::::::::ÿ ::: ::: ÿ:::     :::  :::::::::  º
º :::  ::: ÿ:::ÿÿÿ:::ÿÿ:::ÿÿ:::ÿ ÿÿ:::ÿÿÿ::: ÿ::: ::: ÿ:::     :::  :::ÿÿÿ:::  º
º :::  ::: ÿ:::ÿ ÿ:::ÿÿ:::::::ÿÿ ÿÿ:::  ÿ::: ÿ::: :::  :::     :::  :::ÿ ÿ:::  º
º :::  ::: ÿ:::ÿ ÿ:::ÿÿ::::::ÿÿ  ÿÿ:::  ÿ::: ÿ::: :::  :::  :  :::  :::ÿ ÿ:::  º
º :::  ::: ÿ:::ÿ ÿ:::ÿÿ:::::::ÿÿ ÿÿ:::  ÿ::: ÿ::: :::  ::: ::: :::  :::ÿ ÿ:::  º
º :::  ::: ÿ:::ÿ ÿ:::ÿÿ:::ÿÿ:::ÿÿÿÿ:::  ÿ::: ÿ::: :::  ::: : : :::  :::ÿ ÿ:::  º
º :::..::: ÿ:::ÿ ÿ:::ÿÿ:::ÿ ÿ:::ÿÿÿ:::  ÿ::: ÿ::: :::  ::::: :::::  :::ÿ ÿ:::  º
º ÿ::::::ÿÿÿ:::ÿ ÿ:::ÿÿ:::ÿ ÿÿ:::ÿÿ:::  ÿ::: ÿÿ:::::ÿÿ ::::: :::::  :::ÿ ÿ:::  º
º  ÿ::::ÿ  ÿ:::ÿ ÿ:::ÿÿ:::ÿ  ÿÿ:::ÿ:::  ÿ::: ÿÿÿ:::ÿÿ  ::::   ::::  :::ÿ ÿ:::  º
ÌÍÄÄÄÄÄÄÄÄÄÄÄÄÄÄÄÄÄÄÄÄÄÄÄÄÄÄÄÄÄÄÍÍÍÍÍÍÍÍÍÍÍÍÍÍÍÄÄÄÄÄÄÄÄÄÄÄÄÄÄÄÄÄÄÄÄÄÄÄÄÄÄÄÄÄÄÄ͹
º                                                                              º
³Ð Ð Ð Ð Ð Ð Ð Ð Ð Ð Ð Ð Ð Ð Ð Ð Ð  NOTES  Ð Ð Ð Ð Ð Ð Ð Ð Ð Ð Ð Ð Ð Ð Ð Ð Ð Ð ³
³                                                                              ³
³Ð Ð Ð Ð Ð Ð Ð Ð Ð Ð Ð Ð Ð Ð Ð Ð Ð  NOTES  Ð Ð Ð Ð Ð Ð Ð Ð Ð Ð Ð Ð Ð Ð Ð Ð Ð Ð ³
³                                                                              ³
³                    Billy Lynn's Long Halftime Walk 2016 HDTC UnKnOwN         ³
³                                                                              ³
³ Encoded By .......:UnKnOwN                                                   ³
³ Runtime ..........:1:32                                                      ³
³ IMDb URL .........: http://www.imdb.com/title/tt2513074/                     ³
³ Language .........:English                                                   ³
³ File Size ........: 668 mb                                                   ³
³ Release Date ......... 2016                                                  ³
³ Source       Mr.Miyagi                                                       ³
³ File Type    ......... mp4                                                   ³
³ Genre        .........  Drama, War                                           ³
³                                                                              ³
³                                                                              ³
³                                                                              ³
³                                                                              ³
³ Video                                                                        ³
³ ID                          : 1                                              ³
³ Format                      : AVC                                            ³
³ Format/Info                 : Advanced Video Codec                           ³
³ Format profile              : Main@L4                                        ³
³ Format settings, CABAC      : Yes                                            ³
³ Format settings, ReFrames   : 4 frames                                       ³
³ Codec ID                    : avc1                                           ³
³ Codec ID/Info               : Advanced Video Coding                          ³
³ Duration                    : 1 h 40 min                                     ³
³ Bit rate                    : 766 kb/s                                       ³
³ Width                       : 720 pixels                                     ³
³ Height                      : 366 pixels                                     ³
³ Display aspect ratio        : 1.967                                          ³
³ Frame rate mode             : Constant                                       ³
³ Frame rate                  : 25.000 FPS                                     ³
³ Color space                 : YUV                                            ³
³ Chroma subsampling          : 4:2:0                                          ³
³ Bit depth                   : 8 bits                                         ³
³ Scan type                   : Progressive                                    ³
³ Bits/(Pixel*Frame)          : 0.116                                          ³
³ Stream size                 : 548 MiB (82%)                                  ³
³ Writing library             : x264 core 142 r2479 dd79a61                    ³
³ Encoding settings           : cabac=1 / ref=1 / deblock=1:0:0 / analyse=0    ³
³ Color range                 : Limited                                        ³
³ Color primaries             : BT.601 PAL                                     ³
³ Transfer characteristics    : BT.709                                         ³
³ Matrix coefficients         : BT.601                                         ³
³                                                                              ³
³ Audio                                                                        ³
³ ID                          : 2                                              ³
³ Format                      : AAC                                            ³
³ Format/Info                 : Advanced Audio Codec                           ³
³ Format profile              : LC                                             ³
³ Codec ID                    : 40                                             ³
³ Duration                    : 1 h 40 min                                     ³
³ Bit rate mode               : Constant                                       ³
³ Bit rate                    : 160 kb/s                                       ³
³ Channel(s)                  : 2 channels                                     ³
³ Channel positions           : Front: L R                                     ³
³ Sampling rate               : 48.0 kHz                                       ³
³ Frame rate                  : 46.875 FPS (1024 spf)                          ³
³ Compression mode            : Lossy                                          ³
³ Stream size                 : 116 MiB (17%)                                  ³
³ Language                    : English                                        ³
³ Default                     : Yes                                            ³
³ Alternate group             : 1                                              ³
³                                                                              ³
³                                                                              ³
³                                                                              ³
³                                                                              ³
³                                                                              ³
³                                                                              ³
³                                                                              ³
³                                                                              ³
³                                                                              ³
³                                                                              ³
³                                                                              ³
³                                                                              ³
³                                                                              ³
³                     Plot:                                                    ³
³                   Check Imdb                                                 ³
³                                                                              ³
³                                                                              ³
³                                                                              ³
³                             RELEASE INFO                                     ³
³                                                                              ³
³                                                                              ³
³                              Woot                                            ³
³                                                                              ³
ÈÍÍÍÍÍÍÍÍÍÍÍÍÍÍÍÍÍÍÍÍÍÍÍÍÍÍÍÍÍÍÍÍÍÍÍÍÍÍÍÍÍÍÍÍÍÍÍÍÍÍÍÍÍÍÍÍÍÍÍÍÍÍÍÍÍÍÍÍÍÍÍÍÍÍÍÍÍͼ
ÉÍËÍÍÍÍÍÍÍ»        ÉÄËÄÄËÄÄÄËÄÄÄÄËÍÄÄÄÍËÍÄÄÄÍËÄÄÄÄËÄÄÄËÄÄËÄ»         ÉÍÍÍÍÍÍÍËÍ»
Èμ       ÈÄÍÍÍÍÍÄͼÍÊÍÍÊÍÍÍÊÍÍÍÍÊÍÍÍÍÍÊÍÍÍÍÍÊÍÍÍÍÊÍÍÍÊÍÍÊÍÈÍÄÍÍÍÍÍÄͼ       Èμ
 º                                                                            º
 º                                LOOKING FOR                                 º
 º Supplier                                                                   º
 º     ________                                                               º
 º                                                                            º
 º   Cammer wanted                                                            º
 º                                                                            º
 º  Unrelease Cam/TS/itunes movie/WEB-DL/Screener/DVD/Blueray                 º
 º   Uk and US cammers wanted                                                 º
 º   Need suppliers for audio and video                                       º
 º   and people who are good in searching shit from net                       º
 º                                                                            º
 º          UnKnOwN is back recruiting,if you have anything email us.         º
 º                                                                            º
 º                         unknownreleasegroup@gmail.com                      º
 º                                                                            º
 º                                                                            º
ÉÎËÍÍÍÍÍÍÍÍÍÍÍÍÍÍÍÍÍÍÍÍÍÍÍÍÍÍÍÍÍÍÍÍÍÍÍÍÍÍÍÍÍÍÍÍÍÍÍÍÍÍÍÍÍÍÍÍÍÍÍÍÍÍÍÍÍÍÍÍÍÍÍÍÍÍËλ
È˼ Ð Ð Ð Ð Ð Ð Ð Ð Ð Ð Ð Ð Ð Ð GREETZ & RESPECT Ð Ð Ð Ð  Ð Ð Ð Ð Ð Ð Ð Ð Ð ÐÈ˼
 ÈÍÍÍÍÍÍÍÍÍÍÍÍÍÍÍÍÍÍÍÍÍÍÍËÍÍÍÍÍÍÍÍÍÍÍÍÍÍÍÍÍÍÍÍÍÍÍÍÍÍÍÍÍÍËÍÍÍÍÍÍÍÍÍÍÍÍÍÍÍÍÍÍÍÍͼ
                         º NOBODY YET WILL LET YOU KNOW º
                         º                              º
                         º MORE GOODIES COMING REAL SOONº
                         ÈÍÍÍÍÍÍÍÍÍÍÍÍÍÍÍÍÍÍÍÍÍÍÍÍÍÍÍÍÍͼ



This NFO File was rendered by NFOmation.net


Bookmark and Share

<Mascot>
[ Sitemap ]

aa21