NFOmation.net - Your Ultimate NFO Upload Resource! Viewing NFO file: Maigret.Sets.a.Trap.2016.1080i.BluRay.REMUX.AVC.DTS-HD.MA.5.1-FGT.nfo Maigret.Sets.a.Trap.2016.1080i.BluRay.REMUX.AVC.DTS-HD.MA.5.1-FGT

http://imagecurl.com/images/ >>
5579331597778288591_thumb.png
http://imagecurl.com/images/ >>
4240466391913904030_thumb.png
http://imagecurl.com/images/ >>
5449706832107365282_thumb.png
http://imagecurl.com/images/ >>
3234713754094805803_thumb.png
http://imagecurl.com/images/ >>
9307109029972627684_thumb.png
http://imagecurl.com/images/ >>
6107832879656098907_thumb.png

[mediainfo]
Video
ID                                       : 1
Format                                   : AVC
Format/Info                              : Advanced Video Codec
Format profile                           : High@L4.1
Format settings, CABAC                   : Yes
Format settings, ReFrames                : 2 frames
Format settings, GOP                     : M=1, N=5
Codec ID                                 : V_MPEG4/ISO/AVC
Duration                                 : 1h 26mn
Bit rate mode                            : Variable
Maximum bit rate                         : 36.2 Mbps
Width                                    : 1 920 pixels
Height                                   : 1 080 pixels
Display aspect ratio                     : 16:9
Frame rate mode                          : Constant
Frame rate                               : 25.000 fps
Color space                              : YUV
Chroma subsampling                       : 4:2:0
Bit depth                                : 8 bits
Scan type                                : MBAFF
Scan type, store method                  : Interleaved fields
Scan order                               : Top Field First
Title                                    : Maigret.Sets.a.Trap.2016.1080i.BluRay.REMUX.AVC.DTS-HD.MA.5.1-FGT
Language                                 : English
Default                                  : No
Forced                                   : No

Audio #1
ID                                       : 2
Format                                   : DTS
Format/Info                              : Digital Theater Systems
Format profile                           : MA / Core
Mode                                     : 16
Format settings, Endianness              : Big
Codec ID                                 : A_DTS
Duration                                 : 1h 26mn
Bit rate mode                            : Variable / Constant
Bit rate                                 : Unknown / 1 509 Kbps
Channel(s)                               : 6 channels
Channel positions                        : Front: L C R, Side: L R, LFE
Sampling rate                            : 48.0 KHz
Frame rate                               : 93.750 fps (512 spf)
Bit depth                                : 16 bits
Compression mode                         : Lossless / Lossy
Title                                    : Maigret.Sets.a.Trap.2016.1080i.BluRay.REMUX.AVC.DTS-HD.MA.5.1-FGT
Language                                 : English
Default                                  : Yes
Forced                                   : No

Audio #2
ID                                       : 3
Format                                   : DTS
Format/Info                              : Digital Theater Systems
Mode                                     : 16
Format settings, Endianness              : Big
Codec ID                                 : A_DTS
Duration                                 : 1h 26mn
Bit rate mode                            : Constant
Bit rate                                 : 1 509 Kbps
Channel(s)                               : 6 channels
Channel positions                        : Front: L C R, Side: L R, LFE
Sampling rate                            : 48.0 KHz
Frame rate                               : 93.750 fps (512 spf)
Bit depth                                : 16 bits
Compression mode                         : Lossy
Stream size                              : 934 MiB (5%)
Title                                    : Maigret.Sets.a.Trap.2016.1080i.BluRay.REMUX.AVC.DTS-HD.MA.5.1-FGT
Language                                 : English
Default                                  : No
Forced                                   : No

Menu
00:00:00.000                             : en:Chapter 01
00:09:45.480                             : en:Chapter 02
00:21:40.080                             : en:Chapter 03
00:31:31.720                             : en:Chapter 04
00:42:34.200                             : en:Chapter 05
00:52:57.480                             : en:Chapter 06
01:03:33.800                             : en:Chapter 07
01:14:34.800                             : en:Chapter 08
01:26:30.560                             : en:Chapter 09

[/mediainfo]



This NFO File was rendered by NFOmation.net

http://imagecurl.com/images/ >>
5579331597778288591_thumb.png
http://imagecurl.com/images/ >>
4240466391913904030_thumb.png
http://imagecurl.com/images/ >>
5449706832107365282_thumb.png
http://imagecurl.com/images/ >>
3234713754094805803_thumb.png
http://imagecurl.com/images/ >>
9307109029972627684_thumb.png
http://imagecurl.com/images/ >>
6107832879656098907_thumb.png

[mediainfo]
Video
ID                                       : 1
Format                                   : AVC
Format/Info                              : Advanced Video Codec
Format profile                           : High@L4.1
Format settings, CABAC                   : Yes
Format settings, ReFrames                : 2 frames
Format settings, GOP                     : M=1, N=5
Codec ID                                 : V_MPEG4/ISO/AVC
Duration                                 : 1h 26mn
Bit rate mode                            : Variable
Maximum bit rate                         : 36.2 Mbps
Width                                    : 1 920 pixels
Height                                   : 1 080 pixels
Display aspect ratio                     : 16:9
Frame rate mode                          : Constant
Frame rate                               : 25.000 fps
Color space                              : YUV
Chroma subsampling                       : 4:2:0
Bit depth                                : 8 bits
Scan type                                : MBAFF
Scan type, store method                  : Interleaved fields
Scan order                               : Top Field First
Title                                    : Maigret.Sets.a.Trap.2016.1080i.BluRay.REMUX.AVC.DTS-HD.MA.5.1-FGT
Language                                 : English
Default                                  : No
Forced                                   : No

Audio #1
ID                                       : 2
Format                                   : DTS
Format/Info                              : Digital Theater Systems
Format profile                           : MA / Core
Mode                                     : 16
Format settings, Endianness              : Big
Codec ID                                 : A_DTS
Duration                                 : 1h 26mn
Bit rate mode                            : Variable / Constant
Bit rate                                 : Unknown / 1 509 Kbps
Channel(s)                               : 6 channels
Channel positions                        : Front: L C R, Side: L R, LFE
Sampling rate                            : 48.0 KHz
Frame rate                               : 93.750 fps (512 spf)
Bit depth                                : 16 bits
Compression mode                         : Lossless / Lossy
Title                                    : Maigret.Sets.a.Trap.2016.1080i.BluRay.REMUX.AVC.DTS-HD.MA.5.1-FGT
Language                                 : English
Default                                  : Yes
Forced                                   : No

Audio #2
ID                                       : 3
Format                                   : DTS
Format/Info                              : Digital Theater Systems
Mode                                     : 16
Format settings, Endianness              : Big
Codec ID                                 : A_DTS
Duration                                 : 1h 26mn
Bit rate mode                            : Constant
Bit rate                                 : 1 509 Kbps
Channel(s)                               : 6 channels
Channel positions                        : Front: L C R, Side: L R, LFE
Sampling rate                            : 48.0 KHz
Frame rate                               : 93.750 fps (512 spf)
Bit depth                                : 16 bits
Compression mode                         : Lossy
Stream size                              : 934 MiB (5%)
Title                                    : Maigret.Sets.a.Trap.2016.1080i.BluRay.REMUX.AVC.DTS-HD.MA.5.1-FGT
Language                                 : English
Default                                  : No
Forced                                   : No

Menu
00:00:00.000                             : en:Chapter 01
00:09:45.480                             : en:Chapter 02
00:21:40.080                             : en:Chapter 03
00:31:31.720                             : en:Chapter 04
00:42:34.200                             : en:Chapter 05
00:52:57.480                             : en:Chapter 06
01:03:33.800                             : en:Chapter 07
01:14:34.800                             : en:Chapter 08
01:26:30.560                             : en:Chapter 09

[/mediainfo]



This NFO File was rendered by NFOmation.net


Bookmark and Share

<Mascot>
[ Sitemap ]

aa21