NFOmation.net - Your Ultimate NFO Upload Resource! Viewing NFO file: Goat.2016.1080p.WEB-DL.DD.5.1.H.264-FGT.nfo Goat.2016.1080p.WEB-DL.DD.5.1.H.264-FGT

http://imagecurl.com/images/ >>
9241202751421424741_thumb.png
http://imagecurl.com/images/ >>
2936258606583956410_thumb.png
http://imagecurl.com/images/ >>
1034957168852398811_thumb.png
http://imagecurl.com/images/ >>
4938769907453393168_thumb.png
http://imagecurl.com/images/ >>
8755767904106038522_thumb.png
http://imagecurl.com/images/ >>
4140992993807238035_thumb.png

[mediainfo]
Video
ID                                       : 1
Format                                   : AVC
Format/Info                              : Advanced Video Codec
Format profile                           : High@L4
Format settings, CABAC                   : Yes
Format settings, ReFrames                : 4 frames
Codec ID                                 : V_MPEG4/ISO/AVC
Duration                                 : 1h 42mn
Bit rate                                 : 5 151 Kbps
Width                                    : 1 916 pixels
Height                                   : 1 076 pixels
Display aspect ratio                     : 16:9
Frame rate mode                          : Constant
Frame rate                               : 23.976 fps
Color space                              : YUV
Chroma subsampling                       : 4:2:0
Bit depth                                : 8 bits
Scan type                                : Progressive
Bits/(Pixel*Frame)                       : 0.104
Stream size                              : 3.69 GiB (91%)
Title                                    : SadeceBluRay.comGoat.2016.1080p.WEB-DL.DD.5.1.H.264-FGT
Language                                 : English
Default                                  : Yes
Forced                                   : No
Color range                              : Limited
Color primaries                          : BT.709
Transfer characteristics                 : BT.709
Matrix coefficients                      : BT.709

Audio
ID                                       : 2
Format                                   : AC-3
Format/Info                              : Audio Coding 3
Mode extension                           : CM (complete main)
Format settings, Endianness              : Big
Codec ID                                 : A_AC3
Duration                                 : 1h 42mn
Bit rate mode                            : Constant
Bit rate                                 : 384 Kbps
Channel(s)                               : 6 channels
Channel positions                        : Front: L C R, Side: L R, LFE
Sampling rate                            : 48.0 KHz
Frame rate                               : 31.250 fps (1536 spf)
Compression mode                         : Lossy
Stream size                              : 281 MiB (7%)
Title                                    : Goat.2016.1080p.WEB-DL.DD.5.1.H.264-FGT
Language                                 : English
Default                                  : Yes
Forced                                   : No

Text
ID                                       : 3
Format                                   : UTF-8
Codec ID                                 : S_TEXT/UTF8
Codec ID/Info                            : UTF-8 Plain Text
Language                                 : English
Default                                  : Yes
Forced                                   : No

Menu
00:00:00.000                             : en:Chapter 1
00:07:06.000                             : en:Chapter 2
00:16:54.000                             : en:Chapter 3
00:26:44.000                             : en:Chapter 4
00:34:12.000                             : en:Chapter 5
00:42:42.000                             : en:Chapter 6
00:52:36.000                             : en:Chapter 7
01:01:24.000                             : en:Chapter 8
01:11:02.000                             : en:Chapter 9
01:19:35.000                             : en:Chapter 10
01:29:02.000                             : en:Chapter 11
01:37:30.000                             : en:Chapter 12

[/mediainfo]



This NFO File was rendered by NFOmation.net

http://imagecurl.com/images/ >>
9241202751421424741_thumb.png
http://imagecurl.com/images/ >>
2936258606583956410_thumb.png
http://imagecurl.com/images/ >>
1034957168852398811_thumb.png
http://imagecurl.com/images/ >>
4938769907453393168_thumb.png
http://imagecurl.com/images/ >>
8755767904106038522_thumb.png
http://imagecurl.com/images/ >>
4140992993807238035_thumb.png

[mediainfo]
Video
ID                                       : 1
Format                                   : AVC
Format/Info                              : Advanced Video Codec
Format profile                           : High@L4
Format settings, CABAC                   : Yes
Format settings, ReFrames                : 4 frames
Codec ID                                 : V_MPEG4/ISO/AVC
Duration                                 : 1h 42mn
Bit rate                                 : 5 151 Kbps
Width                                    : 1 916 pixels
Height                                   : 1 076 pixels
Display aspect ratio                     : 16:9
Frame rate mode                          : Constant
Frame rate                               : 23.976 fps
Color space                              : YUV
Chroma subsampling                       : 4:2:0
Bit depth                                : 8 bits
Scan type                                : Progressive
Bits/(Pixel*Frame)                       : 0.104
Stream size                              : 3.69 GiB (91%)
Title                                    : SadeceBluRay.comGoat.2016.1080p.WEB-DL.DD.5.1.H.264-FGT
Language                                 : English
Default                                  : Yes
Forced                                   : No
Color range                              : Limited
Color primaries                          : BT.709
Transfer characteristics                 : BT.709
Matrix coefficients                      : BT.709

Audio
ID                                       : 2
Format                                   : AC-3
Format/Info                              : Audio Coding 3
Mode extension                           : CM (complete main)
Format settings, Endianness              : Big
Codec ID                                 : A_AC3
Duration                                 : 1h 42mn
Bit rate mode                            : Constant
Bit rate                                 : 384 Kbps
Channel(s)                               : 6 channels
Channel positions                        : Front: L C R, Side: L R, LFE
Sampling rate                            : 48.0 KHz
Frame rate                               : 31.250 fps (1536 spf)
Compression mode                         : Lossy
Stream size                              : 281 MiB (7%)
Title                                    : Goat.2016.1080p.WEB-DL.DD.5.1.H.264-FGT
Language                                 : English
Default                                  : Yes
Forced                                   : No

Text
ID                                       : 3
Format                                   : UTF-8
Codec ID                                 : S_TEXT/UTF8
Codec ID/Info                            : UTF-8 Plain Text
Language                                 : English
Default                                  : Yes
Forced                                   : No

Menu
00:00:00.000                             : en:Chapter 1
00:07:06.000                             : en:Chapter 2
00:16:54.000                             : en:Chapter 3
00:26:44.000                             : en:Chapter 4
00:34:12.000                             : en:Chapter 5
00:42:42.000                             : en:Chapter 6
00:52:36.000                             : en:Chapter 7
01:01:24.000                             : en:Chapter 8
01:11:02.000                             : en:Chapter 9
01:19:35.000                             : en:Chapter 10
01:29:02.000                             : en:Chapter 11
01:37:30.000                             : en:Chapter 12

[/mediainfo]



This NFO File was rendered by NFOmation.net


Bookmark and Share

<Mascot>
[ Sitemap ]

aa21