NFOmation.net - Your Ultimate NFO Upload Resource! Viewing NFO file: Lost.in.the.Pacific.2016.720p.WEB-DL.XviD.AC3-FGT.nfo Lost.in.the.Pacific.2016.720p.WEB-DL.XviD.AC3-FGT

General
Complete name               : Lost.in.the.Pacific.2016.720p.WEB-DL.XviD.AC3-FGT
Format                      : AVI
Format/Info                 : Audio Video Interleave
Format profile              : OpenDML
File size                   : 2.63 GiB
Duration                    : 1 h 29 min
Overall bit rate            : 4 179 kb/s
Movie name                  : Lost.in.the.Pacific.2016.720p.WEB-DL.XviD.AC3-FGT
Writing library             : VirtualDub build 35491/release
Comment                     : Lost.in.the.Pacific.2016.720p.WEB-DL.XviD.AC3-FGT

Video
ID                          : 0
Format                      : MPEG-4 Visual
Format profile              : Simple@L5
Format settings, BVOP       : No
Format settings, QPel       : No
Format settings, GMC        : No warppoints
Format settings, Matrix     : Default (H.263)
Codec ID                    : XVID
Codec ID/Hint               : XviD
Duration                    : 1 h 29 min
Bit rate                    : 3 784 kb/s
Width                       : 1 200 pixels
Height                      : 692 pixels
Display aspect ratio        : 1.85:1
Frame rate                  : 23.976 (24000/1001) FPS
Color space                 : YUV
Chroma subsampling          : 4:2:0
Bit depth                   : 8 bits
Scan type                   : Progressive
Compression mode            : Lossy
Bits/(Pixel*Frame)          : 0.190
Stream size                 : 2.38 GiB (91%)
Writing library             : Lavc57.24.102

Audio
ID                          : 1
Format                      : AC-3
Format/Info                 : Audio Coding 3
Mode extension              : CM (complete main)
Format settings, Endianness : Big
Codec ID                    : 2000
Duration                    : 1 h 29 min
Bit rate mode               : Constant
Bit rate                    : 384 kb/s
Channel(s)                  : 6 channels
Channel positions           : Front: L C R, Side: L R, LFE
Sampling rate               : 48.0 kHz
Frame rate                  : 31.250 FPS (1536 spf)
Bit depth                   : 16 bits
Compression mode            : Lossy
Stream size                 : 247 MiB (9%)
Alignment                   : Aligned on interleaves
Interleave, duration        : 42  ms (1.00 video frame)
Interleave, preload duratio : 512  ms



This NFO File was rendered by NFOmation.net

General
Complete name               : Lost.in.the.Pacific.2016.720p.WEB-DL.XviD.AC3-FGT
Format                      : AVI
Format/Info                 : Audio Video Interleave
Format profile              : OpenDML
File size                   : 2.63 GiB
Duration                    : 1 h 29 min
Overall bit rate            : 4 179 kb/s
Movie name                  : Lost.in.the.Pacific.2016.720p.WEB-DL.XviD.AC3-FGT
Writing library             : VirtualDub build 35491/release
Comment                     : Lost.in.the.Pacific.2016.720p.WEB-DL.XviD.AC3-FGT

Video
ID                          : 0
Format                      : MPEG-4 Visual
Format profile              : Simple@L5
Format settings, BVOP       : No
Format settings, QPel       : No
Format settings, GMC        : No warppoints
Format settings, Matrix     : Default (H.263)
Codec ID                    : XVID
Codec ID/Hint               : XviD
Duration                    : 1 h 29 min
Bit rate                    : 3 784 kb/s
Width                       : 1 200 pixels
Height                      : 692 pixels
Display aspect ratio        : 1.85:1
Frame rate                  : 23.976 (24000/1001) FPS
Color space                 : YUV
Chroma subsampling          : 4:2:0
Bit depth                   : 8 bits
Scan type                   : Progressive
Compression mode            : Lossy
Bits/(Pixel*Frame)          : 0.190
Stream size                 : 2.38 GiB (91%)
Writing library             : Lavc57.24.102

Audio
ID                          : 1
Format                      : AC-3
Format/Info                 : Audio Coding 3
Mode extension              : CM (complete main)
Format settings, Endianness : Big
Codec ID                    : 2000
Duration                    : 1 h 29 min
Bit rate mode               : Constant
Bit rate                    : 384 kb/s
Channel(s)                  : 6 channels
Channel positions           : Front: L C R, Side: L R, LFE
Sampling rate               : 48.0 kHz
Frame rate                  : 31.250 FPS (1536 spf)
Bit depth                   : 16 bits
Compression mode            : Lossy
Stream size                 : 247 MiB (9%)
Alignment                   : Aligned on interleaves
Interleave, duration        : 42  ms (1.00 video frame)
Interleave, preload duratio : 512  ms



This NFO File was rendered by NFOmation.net


Bookmark and Share

<Mascot>
[ Sitemap ]

aa21