NFOmation.net - Your Ultimate NFO Upload Resource! Viewing NFO file: Lost.in.the.Pacific.2016.1080p.WEB-DL.DD5.1.H264-FGT.nfo Lost.in.the.Pacific.2016.1080p.WEB-DL.DD5.1.H264-FGT

General
Unique ID                   : 234407183086775189747419104977378413467 (0xB0592E6A3E0468F595A20AE288290B9B)
Complete name               : Lost.in.the.Pacific.2016.1080p.WEB-DL.DD5.1.H264-FGT
Format                      : Matroska
Format version              : Version 4 / Version 2
File size                   : 3.51 GiB
Duration                    : 1 h 29 min
Overall bit rate            : 5 583 kb/s
Movie name                  : Lost.in.the.Pacific.2016.1080p.WEB-DL.DD5.1.H264-FGT
Encoded date                : UTC 2017-01-09 14:05:39
Writing application         : mkvmerge v9.6.0 ('Slave To Your Mind') 64bit
Writing library             : libebml v1.3.4 + libmatroska v1.4.5
Cover                       : Yes
Attachments                 : cover_land.jpg / small_cover.jpg / small_cover_land.jpg / cover.jpg

Video
ID                          : 1
Format                      : AVC
Format/Info                 : Advanced Video Codec
Format profile              : High@L4
Format settings, CABAC      : Yes
Format settings, ReFrames   : 4 frames
Codec ID                    : V_MPEG4/ISO/AVC
Duration                    : 1 h 29 min
Bit rate                    : 5 087 kb/s
Width                       : 1 908 pixels
Height                      : 1 032 pixels
Display aspect ratio        : 1.85:1
Frame rate mode             : Constant
Frame rate                  : 23.976 (24000/1001) FPS
Color space                 : YUV
Chroma subsampling          : 4:2:0
Bit depth                   : 8 bits
Scan type                   : Progressive
Bits/(Pixel*Frame)          : 0.108
Stream size                 : 3.20 GiB (91%)
Title                       : Lost.in.the.Pacific.2016.1080p.WEB-DL.DD5.1.H264-FGT
Language                    : English
Default                     : Yes
Forced                      : No
Color range                 : Limited
Color primaries             : BT.709
Transfer characteristics    : BT.709
Matrix coefficients         : BT.709

Audio
ID                          : 2
Format                      : AC-3
Format/Info                 : Audio Coding 3
Mode extension              : CM (complete main)
Format settings, Endianness : Big
Codec ID                    : A_AC3
Duration                    : 1 h 29 min
Bit rate mode               : Constant
Bit rate                    : 384 kb/s
Channel(s)                  : 6 channels
Channel positions           : Front: L C R, Side: L R, LFE
Sampling rate               : 48.0 kHz
Frame rate                  : 31.250 FPS (1536 spf)
Bit depth                   : 16 bits
Compression mode            : Lossy
Stream size                 : 247 MiB (7%)
Title                       : Lost.in.the.Pacific.2016.1080p.WEB-DL.DD5.1.H264-FGT
Language                    : English
Default                     : Yes
Forced                      : No

Text
ID                          : 3
Format                      : UTF-8
Codec ID                    : S_TEXT/UTF8
Codec ID/Info               : UTF-8 Plain Text
Language                    : English
Default                     : Yes
Forced                      : No

Menu
00:00:00.000                : en:1
00:03:36.000                : en:2
00:12:32.000                : en:3
00:21:21.000                : en:4
00:30:24.000                : en:5
00:44:35.000                : en:6
00:55:27.000                : en:7
01:05:57.000                : en:8
01:13:43.000                : en:9
01:24:14.000                : en:10



This NFO File was rendered by NFOmation.net

General
Unique ID                   : 234407183086775189747419104977378413467 (0xB0592E6A3E0468F595A20AE288290B9B)
Complete name               : Lost.in.the.Pacific.2016.1080p.WEB-DL.DD5.1.H264-FGT
Format                      : Matroska
Format version              : Version 4 / Version 2
File size                   : 3.51 GiB
Duration                    : 1 h 29 min
Overall bit rate            : 5 583 kb/s
Movie name                  : Lost.in.the.Pacific.2016.1080p.WEB-DL.DD5.1.H264-FGT
Encoded date                : UTC 2017-01-09 14:05:39
Writing application         : mkvmerge v9.6.0 ('Slave To Your Mind') 64bit
Writing library             : libebml v1.3.4 + libmatroska v1.4.5
Cover                       : Yes
Attachments                 : cover_land.jpg / small_cover.jpg / small_cover_land.jpg / cover.jpg

Video
ID                          : 1
Format                      : AVC
Format/Info                 : Advanced Video Codec
Format profile              : High@L4
Format settings, CABAC      : Yes
Format settings, ReFrames   : 4 frames
Codec ID                    : V_MPEG4/ISO/AVC
Duration                    : 1 h 29 min
Bit rate                    : 5 087 kb/s
Width                       : 1 908 pixels
Height                      : 1 032 pixels
Display aspect ratio        : 1.85:1
Frame rate mode             : Constant
Frame rate                  : 23.976 (24000/1001) FPS
Color space                 : YUV
Chroma subsampling          : 4:2:0
Bit depth                   : 8 bits
Scan type                   : Progressive
Bits/(Pixel*Frame)          : 0.108
Stream size                 : 3.20 GiB (91%)
Title                       : Lost.in.the.Pacific.2016.1080p.WEB-DL.DD5.1.H264-FGT
Language                    : English
Default                     : Yes
Forced                      : No
Color range                 : Limited
Color primaries             : BT.709
Transfer characteristics    : BT.709
Matrix coefficients         : BT.709

Audio
ID                          : 2
Format                      : AC-3
Format/Info                 : Audio Coding 3
Mode extension              : CM (complete main)
Format settings, Endianness : Big
Codec ID                    : A_AC3
Duration                    : 1 h 29 min
Bit rate mode               : Constant
Bit rate                    : 384 kb/s
Channel(s)                  : 6 channels
Channel positions           : Front: L C R, Side: L R, LFE
Sampling rate               : 48.0 kHz
Frame rate                  : 31.250 FPS (1536 spf)
Bit depth                   : 16 bits
Compression mode            : Lossy
Stream size                 : 247 MiB (7%)
Title                       : Lost.in.the.Pacific.2016.1080p.WEB-DL.DD5.1.H264-FGT
Language                    : English
Default                     : Yes
Forced                      : No

Text
ID                          : 3
Format                      : UTF-8
Codec ID                    : S_TEXT/UTF8
Codec ID/Info               : UTF-8 Plain Text
Language                    : English
Default                     : Yes
Forced                      : No

Menu
00:00:00.000                : en:1
00:03:36.000                : en:2
00:12:32.000                : en:3
00:21:21.000                : en:4
00:30:24.000                : en:5
00:44:35.000                : en:6
00:55:27.000                : en:7
01:05:57.000                : en:8
01:13:43.000                : en:9
01:24:14.000                : en:10



This NFO File was rendered by NFOmation.net


Bookmark and Share

<Mascot>
[ Sitemap ]

aa21