NFOmation.net - Your Ultimate NFO Upload Resource! Viewing NFO file: Goat.2016.WEB-DL.XviD.AC3-FGT.nfo Goat.2016.WEB-DL.XviD.AC3-FGT

General
Complete name               : Goat.2016.WEB-DL.XviD.AC3-FGT
Format                      : AVI
Format/Info                 : Audio Video Interleave
File size                   : 1.43 GiB
Duration                    : 1 h 42 min
Overall bit rate            : 1 992 kb/s
Movie name                  : Goat.2016.WEB-DL.XviD.AC3-FGT
Writing library             : VirtualDub build 35491/release
Comment                     : Goat.2016.WEB-DL.XviD.AC3-FGT

Video
ID                          : 0
Format                      : MPEG-4 Visual
Format profile              : Simple@L5
Format settings, BVOP       : No
Format settings, QPel       : No
Format settings, GMC        : No warppoints
Format settings, Matrix     : Default (H.263)
Codec ID                    : XVID
Codec ID/Hint               : XviD
Duration                    : 1 h 42 min
Bit rate                    : 1 599 kb/s
Width                       : 720 pixels
Height                      : 400 pixels
Display aspect ratio        : 16:9
Frame rate                  : 23.976 (24000/1001) FPS
Color space                 : YUV
Chroma subsampling          : 4:2:0
Bit depth                   : 8 bits
Scan type                   : Progressive
Compression mode            : Lossy
Bits/(Pixel*Frame)          : 0.232
Stream size                 : 1.14 GiB (80%)
Writing library             : Lavc57.16.101

Audio
ID                          : 1
Format                      : AC-3
Format/Info                 : Audio Coding 3
Mode extension              : CM (complete main)
Format settings, Endianness : Big
Codec ID                    : 2000
Duration                    : 1 h 42 min
Bit rate mode               : Constant
Bit rate                    : 384 kb/s
Channel(s)                  : 6 channels
Channel positions           : Front: L C R, Side: L R, LFE
Sampling rate               : 48.0 kHz
Frame rate                  : 31.250 FPS (1536 spf)
Bit depth                   : 16 bits
Compression mode            : Lossy
Stream size                 : 281 MiB (19%)
Alignment                   : Aligned on interleaves
Interleave, duration        : 42  ms (1.00 video frame)
Interleave, preload duratio : 512  ms



This NFO File was rendered by NFOmation.net

General
Complete name               : Goat.2016.WEB-DL.XviD.AC3-FGT
Format                      : AVI
Format/Info                 : Audio Video Interleave
File size                   : 1.43 GiB
Duration                    : 1 h 42 min
Overall bit rate            : 1 992 kb/s
Movie name                  : Goat.2016.WEB-DL.XviD.AC3-FGT
Writing library             : VirtualDub build 35491/release
Comment                     : Goat.2016.WEB-DL.XviD.AC3-FGT

Video
ID                          : 0
Format                      : MPEG-4 Visual
Format profile              : Simple@L5
Format settings, BVOP       : No
Format settings, QPel       : No
Format settings, GMC        : No warppoints
Format settings, Matrix     : Default (H.263)
Codec ID                    : XVID
Codec ID/Hint               : XviD
Duration                    : 1 h 42 min
Bit rate                    : 1 599 kb/s
Width                       : 720 pixels
Height                      : 400 pixels
Display aspect ratio        : 16:9
Frame rate                  : 23.976 (24000/1001) FPS
Color space                 : YUV
Chroma subsampling          : 4:2:0
Bit depth                   : 8 bits
Scan type                   : Progressive
Compression mode            : Lossy
Bits/(Pixel*Frame)          : 0.232
Stream size                 : 1.14 GiB (80%)
Writing library             : Lavc57.16.101

Audio
ID                          : 1
Format                      : AC-3
Format/Info                 : Audio Coding 3
Mode extension              : CM (complete main)
Format settings, Endianness : Big
Codec ID                    : 2000
Duration                    : 1 h 42 min
Bit rate mode               : Constant
Bit rate                    : 384 kb/s
Channel(s)                  : 6 channels
Channel positions           : Front: L C R, Side: L R, LFE
Sampling rate               : 48.0 kHz
Frame rate                  : 31.250 FPS (1536 spf)
Bit depth                   : 16 bits
Compression mode            : Lossy
Stream size                 : 281 MiB (19%)
Alignment                   : Aligned on interleaves
Interleave, duration        : 42  ms (1.00 video frame)
Interleave, preload duratio : 512  ms



This NFO File was rendered by NFOmation.net


Bookmark and Share

<Mascot>
[ Sitemap ]

aa21