NFOmation.net - Your Ultimate NFO Upload Resource! Viewing NFO file: La_La_Land_2016_HDCAM_UnKnOwN.nfo La_La_Land_2016_HDCAM_UnKnOwN

╔═──────────────────────────────═══════════════───────────────────────────────═╗
║                                                                              ║
║ :::  :::    :::::    :::     :::   :::::      :::    :::     :::    :::::    ║
║ :::  :::   :::::::   :::    :::   :::::::    :::::   :::     :::   :::::::   ║
║ :::  :::  :::::::::  :::   :::   :::::::::  ::: :::  :::     :::  :::::::::  ║
║ :::  :::  :::   :::  :::  :::    :::   :::  ::: :::  :::     :::  :::   :::  ║
║ :::  :::  :::   :::  :::::::     :::   :::  ::: :::  :::     :::  :::   :::  ║
║ :::  :::  :::   :::  ::::::      :::   :::  ::: :::  :::  :  :::  :::   :::  ║
║ :::  :::  :::   :::  :::::::     :::   :::  ::: :::  ::: ::: :::  :::   :::  ║
║ :::  :::  :::   :::  :::  :::    :::   :::  ::: :::  ::: : : :::  :::   :::  ║
║ :::..:::  :::   :::  :::   :::   :::   :::  ::: :::  ::::: :::::  :::   :::  ║
║  ::::::   :::   :::  :::    :::  :::   :::   :::::   ::::: :::::  :::   :::  ║
║   ::::    :::   :::  :::     ::: :::   :::    :::    ::::   ::::  :::   :::  ║
╠═──────────────────────────────═══════════════───────────────────────────────═╣
║                                                                              ║
│╨ ╨ ╨ ╨ ╨ ╨ ╨ ╨ ╨ ╨ ╨ ╨ ╨ ╨ ╨ ╨ ╨  NOTES  ╨ ╨ ╨ ╨ ╨ ╨ ╨ ╨ ╨ ╨ ╨ ╨ ╨ ╨ ╨ ╨ ╨ ╨ │
│                                                                              │
│╨ ╨ ╨ ╨ ╨ ╨ ╨ ╨ ╨ ╨ ╨ ╨ ╨ ╨ ╨ ╨ ╨  NOTES  ╨ ╨ ╨ ╨ ╨ ╨ ╨ ╨ ╨ ╨ ╨ ╨ ╨ ╨ ╨ ╨ ╨ ╨ │
│                                                                              │
│                   La La Land 2016 HDCAM UnKnOwN                              │
│                                                                              │
│ Encoded By .......:UnKnOwN                                                   │
│ Runtime ..........:2:00                                                      │
│ IMDb URL .........: http://www.imdb.com/title/tt3783958/                     │
│ Language .........:English                                                   │
│ File Size ........: 700 mb                                                   │
│ Release Date ......... 2016                                                  │
│ Source       Mr.Miyagi                                                       │
│ File Type    ......... Single MP4                                            │
│ Genre        .......... Comedy, Drama, Musical                               │
│                                                                              │
│                                                                              │
│                                                                              │
│                                                                              │
│ Video                                                                        │
│ ID                          : 1                                              │
│ Format                      : AVC                                            │
│ Format/Info                 : Advanced Video Codec                           │
│ Format profile              : High@L3                                        │
│ Format settings, CABAC      : Yes                                            │
│ Format settings, ReFrames   : 8 frames                                       │
│ Codec ID                    : avc1                                           │
│ Codec ID/Info               : Advanced Video Coding                          │
│ Duration                    : 1 h 59 min                                     │
│ Bit rate                    : 715 kb/s                                       │
│ Maximum bit rate            : 2 661 kb/s                                     │
│ Width                       : 640 pixels                                     │
│ Height                      : 260 pixels                                     │
│ Display aspect ratio        : 2.462                                          │
│ Frame rate mode             : Constant                                       │
│ Frame rate                  : 29.970 (30000/1001) FPS                        │
│ Color space                 : YUV                                            │
│ Chroma subsampling          : 4:2:0                                          │
│ Bit depth                   : 8 bits                                         │
│ Scan type                   : Progressive                                    │
│ Bits/(Pixel*Frame)          : 0.143                                          │
│ Stream size                 : 614 MiB (88%)                                  │
│ Writing library             : x264 core 148 r2705 3f5ed56                    │
│ Encoding settings           : cabac=1 / ref=8 / deblock=1:0:0                │
│ Encoded date                : UTC 2017-01-11 12:49:48                        │
│ Tagged date                 : UTC 2017-01-11 12:50:06                        │
│                                                                              │
│                                                                              │
│ Audio                                                                        │
│ ID                          : 2                                              │
│ Format                      : AAC                                            │
│ Format/Info                 : Advanced Audio Codec                           │
│ Format profile              : LC                                             │
│ Codec ID                    : 40                                             │
│ Duration                    : 1 h 59 min                                     │
│ Bit rate mode               : Variable                                       │
│ Bit rate                    : 96.0 kb/s                                      │
│ Maximum bit rate            : 105 kb/s                                       │
│ Channel(s)                  : 2 channels                                     │
│ Channel positions           : Front: L R                                     │
│ Sampling rate               : 48.0 kHz                                       │
│ Frame rate                  : 46.875 FPS (1024 spf)                          │
│ Compression mode            : Lossy                                          │
│ Stream size                 : 82.4 MiB (12%)                                 │
│ Encoded date                : UTC 2017-01-11 12:50:01                        │
│ Tagged date                 : UTC 2017-01-11 12:50:06                        │
│                                                                              │
│                                                                              │
│                                                                              │
│                                                                              │
│                                                                              │
│                                                                              │
│                                                                              │
│                                                                              │
│                                                                              │
│                                                                              │
│                                                                              │
│                                                                              │
│                                                                              │
│                     Plot:                                                    │
│                   Check Imdb                                                 │
│                                                                              │
│                                                                              │
│                                                                              │
│                             RELEASE INFO                                     │
│                                                                              │
│                                                                              │
│                              Woot                                            │
│                                                                              │
╚══════════════════════════════════════════════════════════════════════════════╝
╔═╦═══════╗        ╔─╦──╦───╦────╦═───═╦═───═╦────╦───╦──╦─╗         ╔═══════╦═╗
╚╬╝       ╚─═════─═╝═╩══╩═══╩════╩═════╩═════╩════╩═══╩══╩═╚═─═════─═╝       ╚╬╝
 ║                                                                            ║
 ║                                LOOKING FOR                                 ║
 ║ Supplier                                                                   ║
 ║     ________                                                               ║
 ║                                                                            ║
 ║   Cammer wanted                                                            ║
 ║                                                                            ║
 ║  Unrelease Cam/TS/itunes movie/WEB-DL/Screener/DVD/Blueray                 ║
 ║   Uk and US cammers wanted                                                 ║
 ║   Need suppliers for audio and video                                       ║
 ║   and people who are good in searching shit from net                       ║
 ║                                                                            ║
 ║          UnKnOwN is back recruiting,if you have anything email us.         ║
 ║                                                                            ║
 ║                         unknownreleasegroup@gmail.com                      ║
 ║                                                                            ║
 ║                                                                            ║
╔╬╦══════════════════════════════════════════════════════════════════════════╦╬╗
╚╦╝ ╨ ╨ ╨ ╨ ╨ ╨ ╨ ╨ ╨ ╨ ╨ ╨ ╨ ╨ GREETZ & RESPECT ╨ ╨ ╨ ╨  ╨ ╨ ╨ ╨ ╨ ╨ ╨ ╨ ╨ ╨╚╦╝
 ╚═══════════════════════╦══════════════════════════════╦═════════════════════╝
                         ║ NOBODY YET WILL LET YOU KNOW ║
                         ║                              ║
                         ║ MORE GOODIES COMING REAL SOON║
                         ╚══════════════════════════════╝



This NFO File was rendered by NFOmation.net

ÉÍÄÄÄÄÄÄÄÄÄÄÄÄÄÄÄÄÄÄÄÄÄÄÄÄÄÄÄÄÄÄÍÍÍÍÍÍÍÍÍÍÍÍÍÍÍÄÄÄÄÄÄÄÄÄÄÄÄÄÄÄÄÄÄÄÄÄÄÄÄÄÄÄÄÄÄÄÍ»
º                                      ÿ                                       º
º :::  :::ÿ  ÿ:::::  ÿÿ:::ÿ   ÿ:::   :::::    ÿÿ:::ÿÿÿ :::     :::    :::::    º
º :::  :::ÿ  :::::::ÿÿÿ:::ÿ  ÿ:::   :::::::    :::::ÿÿ :::     :::   :::::::   º
º :::  :::ÿÿ:::::::::ÿÿ:::ÿÿÿ:::ÿÿÿ:::::::::ÿ ::: ::: ÿ:::     :::  :::::::::  º
º :::  ::: ÿ:::ÿÿÿ:::ÿÿ:::ÿÿ:::ÿ ÿÿ:::ÿÿÿ::: ÿ::: ::: ÿ:::     :::  :::ÿÿÿ:::  º
º :::  ::: ÿ:::ÿ ÿ:::ÿÿ:::::::ÿÿ ÿÿ:::  ÿ::: ÿ::: :::  :::     :::  :::ÿ ÿ:::  º
º :::  ::: ÿ:::ÿ ÿ:::ÿÿ::::::ÿÿ  ÿÿ:::  ÿ::: ÿ::: :::  :::  :  :::  :::ÿ ÿ:::  º
º :::  ::: ÿ:::ÿ ÿ:::ÿÿ:::::::ÿÿ ÿÿ:::  ÿ::: ÿ::: :::  ::: ::: :::  :::ÿ ÿ:::  º
º :::  ::: ÿ:::ÿ ÿ:::ÿÿ:::ÿÿ:::ÿÿÿÿ:::  ÿ::: ÿ::: :::  ::: : : :::  :::ÿ ÿ:::  º
º :::..::: ÿ:::ÿ ÿ:::ÿÿ:::ÿ ÿ:::ÿÿÿ:::  ÿ::: ÿ::: :::  ::::: :::::  :::ÿ ÿ:::  º
º ÿ::::::ÿÿÿ:::ÿ ÿ:::ÿÿ:::ÿ ÿÿ:::ÿÿ:::  ÿ::: ÿÿ:::::ÿÿ ::::: :::::  :::ÿ ÿ:::  º
º  ÿ::::ÿ  ÿ:::ÿ ÿ:::ÿÿ:::ÿ  ÿÿ:::ÿ:::  ÿ::: ÿÿÿ:::ÿÿ  ::::   ::::  :::ÿ ÿ:::  º
ÌÍÄÄÄÄÄÄÄÄÄÄÄÄÄÄÄÄÄÄÄÄÄÄÄÄÄÄÄÄÄÄÍÍÍÍÍÍÍÍÍÍÍÍÍÍÍÄÄÄÄÄÄÄÄÄÄÄÄÄÄÄÄÄÄÄÄÄÄÄÄÄÄÄÄÄÄÄ͹
º                                                                              º
³Ð Ð Ð Ð Ð Ð Ð Ð Ð Ð Ð Ð Ð Ð Ð Ð Ð  NOTES  Ð Ð Ð Ð Ð Ð Ð Ð Ð Ð Ð Ð Ð Ð Ð Ð Ð Ð ³
³                                                                              ³
³Ð Ð Ð Ð Ð Ð Ð Ð Ð Ð Ð Ð Ð Ð Ð Ð Ð  NOTES  Ð Ð Ð Ð Ð Ð Ð Ð Ð Ð Ð Ð Ð Ð Ð Ð Ð Ð ³
³                                                                              ³
³                   La La Land 2016 HDCAM UnKnOwN                              ³
³                                                                              ³
³ Encoded By .......:UnKnOwN                                                   ³
³ Runtime ..........:2:00                                                      ³
³ IMDb URL .........: http://www.imdb.com/title/tt3783958/                     ³
³ Language .........:English                                                   ³
³ File Size ........: 700 mb                                                   ³
³ Release Date ......... 2016                                                  ³
³ Source       Mr.Miyagi                                                       ³
³ File Type    ......... Single MP4                                            ³
³ Genre        .......... Comedy, Drama, Musical                               ³
³                                                                              ³
³                                                                              ³
³                                                                              ³
³                                                                              ³
³ Video                                                                        ³
³ ID                          : 1                                              ³
³ Format                      : AVC                                            ³
³ Format/Info                 : Advanced Video Codec                           ³
³ Format profile              : High@L3                                        ³
³ Format settings, CABAC      : Yes                                            ³
³ Format settings, ReFrames   : 8 frames                                       ³
³ Codec ID                    : avc1                                           ³
³ Codec ID/Info               : Advanced Video Coding                          ³
³ Duration                    : 1 h 59 min                                     ³
³ Bit rate                    : 715 kb/s                                       ³
³ Maximum bit rate            : 2 661 kb/s                                     ³
³ Width                       : 640 pixels                                     ³
³ Height                      : 260 pixels                                     ³
³ Display aspect ratio        : 2.462                                          ³
³ Frame rate mode             : Constant                                       ³
³ Frame rate                  : 29.970 (30000/1001) FPS                        ³
³ Color space                 : YUV                                            ³
³ Chroma subsampling          : 4:2:0                                          ³
³ Bit depth                   : 8 bits                                         ³
³ Scan type                   : Progressive                                    ³
³ Bits/(Pixel*Frame)          : 0.143                                          ³
³ Stream size                 : 614 MiB (88%)                                  ³
³ Writing library             : x264 core 148 r2705 3f5ed56                    ³
³ Encoding settings           : cabac=1 / ref=8 / deblock=1:0:0                ³
³ Encoded date                : UTC 2017-01-11 12:49:48                        ³
³ Tagged date                 : UTC 2017-01-11 12:50:06                        ³
³                                                                              ³
³                                                                              ³
³ Audio                                                                        ³
³ ID                          : 2                                              ³
³ Format                      : AAC                                            ³
³ Format/Info                 : Advanced Audio Codec                           ³
³ Format profile              : LC                                             ³
³ Codec ID                    : 40                                             ³
³ Duration                    : 1 h 59 min                                     ³
³ Bit rate mode               : Variable                                       ³
³ Bit rate                    : 96.0 kb/s                                      ³
³ Maximum bit rate            : 105 kb/s                                       ³
³ Channel(s)                  : 2 channels                                     ³
³ Channel positions           : Front: L R                                     ³
³ Sampling rate               : 48.0 kHz                                       ³
³ Frame rate                  : 46.875 FPS (1024 spf)                          ³
³ Compression mode            : Lossy                                          ³
³ Stream size                 : 82.4 MiB (12%)                                 ³
³ Encoded date                : UTC 2017-01-11 12:50:01                        ³
³ Tagged date                 : UTC 2017-01-11 12:50:06                        ³
³                                                                              ³
³                                                                              ³
³                                                                              ³
³                                                                              ³
³                                                                              ³
³                                                                              ³
³                                                                              ³
³                                                                              ³
³                                                                              ³
³                                                                              ³
³                                                                              ³
³                                                                              ³
³                                                                              ³
³                     Plot:                                                    ³
³                   Check Imdb                                                 ³
³                                                                              ³
³                                                                              ³
³                                                                              ³
³                             RELEASE INFO                                     ³
³                                                                              ³
³                                                                              ³
³                              Woot                                            ³
³                                                                              ³
ÈÍÍÍÍÍÍÍÍÍÍÍÍÍÍÍÍÍÍÍÍÍÍÍÍÍÍÍÍÍÍÍÍÍÍÍÍÍÍÍÍÍÍÍÍÍÍÍÍÍÍÍÍÍÍÍÍÍÍÍÍÍÍÍÍÍÍÍÍÍÍÍÍÍÍÍÍÍͼ
ÉÍËÍÍÍÍÍÍÍ»        ÉÄËÄÄËÄÄÄËÄÄÄÄËÍÄÄÄÍËÍÄÄÄÍËÄÄÄÄËÄÄÄËÄÄËÄ»         ÉÍÍÍÍÍÍÍËÍ»
Èμ       ÈÄÍÍÍÍÍÄͼÍÊÍÍÊÍÍÍÊÍÍÍÍÊÍÍÍÍÍÊÍÍÍÍÍÊÍÍÍÍÊÍÍÍÊÍÍÊÍÈÍÄÍÍÍÍÍÄͼ       Èμ
 º                                                                            º
 º                                LOOKING FOR                                 º
 º Supplier                                                                   º
 º     ________                                                               º
 º                                                                            º
 º   Cammer wanted                                                            º
 º                                                                            º
 º  Unrelease Cam/TS/itunes movie/WEB-DL/Screener/DVD/Blueray                 º
 º   Uk and US cammers wanted                                                 º
 º   Need suppliers for audio and video                                       º
 º   and people who are good in searching shit from net                       º
 º                                                                            º
 º          UnKnOwN is back recruiting,if you have anything email us.         º
 º                                                                            º
 º                         unknownreleasegroup@gmail.com                      º
 º                                                                            º
 º                                                                            º
ÉÎËÍÍÍÍÍÍÍÍÍÍÍÍÍÍÍÍÍÍÍÍÍÍÍÍÍÍÍÍÍÍÍÍÍÍÍÍÍÍÍÍÍÍÍÍÍÍÍÍÍÍÍÍÍÍÍÍÍÍÍÍÍÍÍÍÍÍÍÍÍÍÍÍÍÍËλ
È˼ Ð Ð Ð Ð Ð Ð Ð Ð Ð Ð Ð Ð Ð Ð GREETZ & RESPECT Ð Ð Ð Ð  Ð Ð Ð Ð Ð Ð Ð Ð Ð ÐÈ˼
 ÈÍÍÍÍÍÍÍÍÍÍÍÍÍÍÍÍÍÍÍÍÍÍÍËÍÍÍÍÍÍÍÍÍÍÍÍÍÍÍÍÍÍÍÍÍÍÍÍÍÍÍÍÍÍËÍÍÍÍÍÍÍÍÍÍÍÍÍÍÍÍÍÍÍÍͼ
                         º NOBODY YET WILL LET YOU KNOW º
                         º                              º
                         º MORE GOODIES COMING REAL SOONº
                         ÈÍÍÍÍÍÍÍÍÍÍÍÍÍÍÍÍÍÍÍÍÍÍÍÍÍÍÍÍÍͼ



This NFO File was rendered by NFOmation.net


Bookmark and Share

<Mascot>
[ Sitemap ]

aa21