NFOmation.net - Your Ultimate NFO Upload Resource! Viewing NFO file: batb.SpArrOw.nfo batb.SpArrOw

General
Complete name : C:\sparrow-trash\Beauty and the Beast (2017) camrip --==SpArrOw==--.VOB
Format : MPEG-PS
File size : 1 003 MiB
Duration : 1 h 58 min
Overall bit rate mode : Variable
Overall bit rate : 1 179 kb/s
Writing library : (dvd5: Oct 19 2015)

Video
ID : 224 (0xE0)
Format : MPEG Video
Format version : Version 2
Format profile : Main@Main
Format settings, BVOP : Yes
Format settings, Matrix : Default
Format settings, GOP : M=3, N=15
Duration : 1 h 58 min
Bit rate mode : Variable
Bit rate : 963 kb/s
Maximum bit rate : 9 008 kb/s
Width : 720 pixels
Height : 480 pixels
Display aspect ratio : 4:3
Frame rate : 29.970 (30000/1001) FPS
Standard : NTSC
Color space : YUV
Chroma subsampling : 4:2:0
Bit depth : 8 bits
Scan type : Progressive
Compression mode : Lossy
Bits/(Pixel*Frame) : 0.093
Time code of first frame : 00:00:00:00
Time code source : Group of pictures header
GOP, Open/Closed : Closed
Stream size : 820 MiB (82%)
Writing library : (dvd5: Oct 19 2015)

Audio
ID : 189 (0xBD)-128 (0x80)
Format : AC-3
Format/Info : Audio Coding 3
language : ENGLISH
Mode extension : CM (complete main)
Format settings, Endianness : Big
Muxing mode : DVD-Video
Duration : 1 h 58 min
Bit rate mode : Constant
Bit rate : 192 kb/s
Channel(s) : 2 channels
Channel positions : Front: L R
Sampling rate : 48.0 kHz
Frame rate : 31.250 FPS (1536 spf)
Bit depth : 16 bits
Compression mode : Lossy
Stream size : 163 MiB (16%)


This NFO File was rendered by NFOmation.net

General
Complete name : C:\sparrow-trash\Beauty and the Beast (2017) camrip --==SpArrOw==--.VOB
Format : MPEG-PS
File size : 1 003 MiB
Duration : 1 h 58 min
Overall bit rate mode : Variable
Overall bit rate : 1 179 kb/s
Writing library : (dvd5: Oct 19 2015)

Video
ID : 224 (0xE0)
Format : MPEG Video
Format version : Version 2
Format profile : Main@Main
Format settings, BVOP : Yes
Format settings, Matrix : Default
Format settings, GOP : M=3, N=15
Duration : 1 h 58 min
Bit rate mode : Variable
Bit rate : 963 kb/s
Maximum bit rate : 9 008 kb/s
Width : 720 pixels
Height : 480 pixels
Display aspect ratio : 4:3
Frame rate : 29.970 (30000/1001) FPS
Standard : NTSC
Color space : YUV
Chroma subsampling : 4:2:0
Bit depth : 8 bits
Scan type : Progressive
Compression mode : Lossy
Bits/(Pixel*Frame) : 0.093
Time code of first frame : 00:00:00:00
Time code source : Group of pictures header
GOP, Open/Closed : Closed
Stream size : 820 MiB (82%)
Writing library : (dvd5: Oct 19 2015)

Audio
ID : 189 (0xBD)-128 (0x80)
Format : AC-3
Format/Info : Audio Coding 3
language : ENGLISH
Mode extension : CM (complete main)
Format settings, Endianness : Big
Muxing mode : DVD-Video
Duration : 1 h 58 min
Bit rate mode : Constant
Bit rate : 192 kb/s
Channel(s) : 2 channels
Channel positions : Front: L R
Sampling rate : 48.0 kHz
Frame rate : 31.250 FPS (1536 spf)
Bit depth : 16 bits
Compression mode : Lossy
Stream size : 163 MiB (16%)


This NFO File was rendered by NFOmation.net


Bookmark and Share

<Mascot>
[ Sitemap ]

aa21