NFOmation.net - Your Ultimate NFO Upload Resource! Viewing NFO file: War_for_the_Planet_of_the_Apes_2017_TS_x264_TiTAN.nfo War_for_the_Planet_of_the_Apes_2017_TS_x264_TiTAN

http://www.impawards.com/2017/posters/war_for_the_planet_of_the_apes_ver2.jpg

War for the Planet of the Apes 2017 TS x264 TiTAN

Sources: Vid - STiG (thnx) // Audio - TapFM (thnx)

Synced nice line audio to stigs video. subs are hardcoded for ape parts, got rid of most of the >>
blockiness, its abit dark, till a new vid pops up, we will do a v2, enjoy.

http://www.imdb.com/title/tt3450958/

After the apes suffer unimaginable losses, Caesar wrestles with his darker instincts and begins his own >>
mythic quest to avenge his kind.

General
Complete name                            : War for the Planet of the Apes 2017 TS x264 TiTAN.mp4
Format                                   : MPEG-4
Format profile                           : Base Media
Codec ID                                 : isom (isom)
File size                                : 2.91 GiB
Duration                                 : 2 h 12 min
Overall bit rate mode                    : Variable
Overall bit rate                         : 3 141 kb/s
Encoded date                             : UTC 2017-07-28 00:49:15
Tagged date                              : UTC 2017-07-28 00:49:15

Video
ID                                       : 1
Format                                   : AVC
Format/Info                              : Advanced Video Codec
Format profile                           : High@L4.1
Format settings, CABAC                   : Yes
Format settings, ReFrames                : 3 frames
Codec ID                                 : avc1
Codec ID/Info                            : Advanced Video Coding
Duration                                 : 2 h 12 min
Bit rate mode                            : Variable
Bit rate                                 : 2 998 kb/s
Maximum bit rate                         : 40.0 Mb/s
Width                                    : 720 pixels
Height                                   : 320 pixels
Display aspect ratio                     : 2.25:1
Frame rate mode                          : Constant
Frame rate                               : 29.970 (30000/1001) FPS
Color space                              : YUV
Chroma subsampling                       : 4:2:0
Bit depth                                : 8 bits
Scan type                                : Progressive
Bits/(Pixel*Frame)                       : 0.434
Stream size                              : 2.77 GiB (95%)
Encoded date                             : UTC 2017-07-29 00:47:25
Tagged date                              : UTC 2017-07-28 00:49:32
Color range                              : Full
Color primaries                          : BT.709
Transfer characteristics                 : BT.709
Matrix coefficients                      : BT.709

Audio
ID                                       : 2
Format                                   : AAC
Format/Info                              : Advanced Audio Codec
Format profile                           : LC
Codec ID                                 : 40
Duration                                 : 2 h 12 min
Bit rate mode                            : Variable
Bit rate                                 : 144 kb/s
Maximum bit rate                         : 168 kb/s
Channel(s)                               : 2 channels
Channel positions                        : Front: L R
Sampling rate                            : 48.0 kHz
Frame rate                               : 46.875 FPS (1024 spf)
Compression mode                         : Lossy
Stream size                              : 134 MiB (4%)
Language                                 : English
Encoded date                             : UTC 2017-07-29 00:43:02
Tagged date                              : UTC 2017-07-28 00:49:32

http://i.imgur.com/EvuRtqa.png
http://i.imgur.com/EkLnstk.png
http://i.imgur.com/M5pijx9.png
http://i.imgur.com/vvwvbLm.png
http://i.imgur.com/xC7bJ2B.png
http://i.imgur.com/kRfoPdT.png
http://i.imgur.com/rQShxTW.png
http://i.imgur.com/RgVxPlM.png


This NFO File was rendered by NFOmation.net

http://www.impawards.com/2017/posters/war_for_the_planet_of_the_apes_ver2.jpg

War for the Planet of the Apes 2017 TS x264 TiTAN

Sources: Vid - STiG (thnx) // Audio - TapFM (thnx)

Synced nice line audio to stigs video. subs are hardcoded for ape parts, got rid of most of the >>
blockiness, its abit dark, till a new vid pops up, we will do a v2, enjoy.

http://www.imdb.com/title/tt3450958/

After the apes suffer unimaginable losses, Caesar wrestles with his darker instincts and begins his own >>
mythic quest to avenge his kind.

General
Complete name                            : War for the Planet of the Apes 2017 TS x264 TiTAN.mp4
Format                                   : MPEG-4
Format profile                           : Base Media
Codec ID                                 : isom (isom)
File size                                : 2.91 GiB
Duration                                 : 2 h 12 min
Overall bit rate mode                    : Variable
Overall bit rate                         : 3 141 kb/s
Encoded date                             : UTC 2017-07-28 00:49:15
Tagged date                              : UTC 2017-07-28 00:49:15

Video
ID                                       : 1
Format                                   : AVC
Format/Info                              : Advanced Video Codec
Format profile                           : High@L4.1
Format settings, CABAC                   : Yes
Format settings, ReFrames                : 3 frames
Codec ID                                 : avc1
Codec ID/Info                            : Advanced Video Coding
Duration                                 : 2 h 12 min
Bit rate mode                            : Variable
Bit rate                                 : 2 998 kb/s
Maximum bit rate                         : 40.0 Mb/s
Width                                    : 720 pixels
Height                                   : 320 pixels
Display aspect ratio                     : 2.25:1
Frame rate mode                          : Constant
Frame rate                               : 29.970 (30000/1001) FPS
Color space                              : YUV
Chroma subsampling                       : 4:2:0
Bit depth                                : 8 bits
Scan type                                : Progressive
Bits/(Pixel*Frame)                       : 0.434
Stream size                              : 2.77 GiB (95%)
Encoded date                             : UTC 2017-07-29 00:47:25
Tagged date                              : UTC 2017-07-28 00:49:32
Color range                              : Full
Color primaries                          : BT.709
Transfer characteristics                 : BT.709
Matrix coefficients                      : BT.709

Audio
ID                                       : 2
Format                                   : AAC
Format/Info                              : Advanced Audio Codec
Format profile                           : LC
Codec ID                                 : 40
Duration                                 : 2 h 12 min
Bit rate mode                            : Variable
Bit rate                                 : 144 kb/s
Maximum bit rate                         : 168 kb/s
Channel(s)                               : 2 channels
Channel positions                        : Front: L R
Sampling rate                            : 48.0 kHz
Frame rate                               : 46.875 FPS (1024 spf)
Compression mode                         : Lossy
Stream size                              : 134 MiB (4%)
Language                                 : English
Encoded date                             : UTC 2017-07-29 00:43:02
Tagged date                              : UTC 2017-07-28 00:49:32

http://i.imgur.com/EvuRtqa.png
http://i.imgur.com/EkLnstk.png
http://i.imgur.com/M5pijx9.png
http://i.imgur.com/vvwvbLm.png
http://i.imgur.com/xC7bJ2B.png
http://i.imgur.com/kRfoPdT.png
http://i.imgur.com/rQShxTW.png
http://i.imgur.com/RgVxPlM.png


This NFO File was rendered by NFOmation.net


Bookmark and Share

<Mascot>
[ Sitemap ]

aa21