NFOmation.net - Your Ultimate NFO Upload Resource! Viewing NFO file: NFO.txt NFO.txt


http://www.imdb.com/title/tt5140878/

Source: THE STiG / OWN-TapFm

K here is another TS from us, audio is mint, video is pretty good, just has some annoying blurred >>
watermarks scrolling thru vid at beginning and a few other spots, for maybe a total of 8-10 min of movie, >>
otherwise vid is watchable for a dark movie.. Enjoy

General

Format                      : AVI
Format/Info                 : Audio Video Interleave
File size                   : 1.42 GiB
Duration                    : 1 h 48 min
Overall bit rate            : 1 871 kb/s

Video

ID                          : 0
Format                      : MPEG-4 Visual
Format profile              : Advanced Simple@L5
Format settings, BVOP       : 2
Format settings, QPel       : No
Format settings, GMC        : No warppoints
Format settings, Matrix     : Default (H.263)
Codec ID                    : XVID
Codec ID/Hint               : XviD
Duration                    : 1 h 48 min
Bit rate                    : 1 670 kb/s
Width                       : 720 pixels
Height                      : 304 pixels
Display aspect ratio        : 2.35:1
Frame rate                  : 29.970 (30000/1001) FPS
Color space                 : YUV
Chroma subsampling          : 4:2:0
Bit depth                   : 8 bits
Scan type                   : Progressive
Compression mode            : Lossy
Bits/(Pixel*Frame)          : 0.255
Stream size                 : 1.27 GiB (89%)
Writing library             : XviD 67

Audio

ID                          : 1
Format                      : AC-3
Format/Info                 : Audio Coding 3
Format settings, Endianness : Big
Codec ID                    : 2000
Duration                    : 1 h 48 min
Bit rate mode               : Constant
Bit rate                    : 192 kb/s
Channel(s)                  : 2 channels
Channel positions           : Front: L R
Sampling rate               : 44.1 kHz
Frame rate                  : 28.711 FPS (1536 SPF)
Bit depth                   : 16 bits
Compression mode            : Lossy
Stream size                 : 150 MiB (10%)
Alignment                   : Aligned on interleaves
Interleave, duration        : 70  ms (2.09 video frames)
Interleave, preload duratio : 208  ms
Title                       : English
Service kind                : Complete Main


This NFO File was rendered by NFOmation.net


http://www.imdb.com/title/tt5140878/

Source: THE STiG / OWN-TapFm

K here is another TS from us, audio is mint, video is pretty good, just has some annoying blurred >>
watermarks scrolling thru vid at beginning and a few other spots, for maybe a total of 8-10 min of movie, >>
otherwise vid is watchable for a dark movie.. Enjoy

General

Format                      : AVI
Format/Info                 : Audio Video Interleave
File size                   : 1.42 GiB
Duration                    : 1 h 48 min
Overall bit rate            : 1 871 kb/s

Video

ID                          : 0
Format                      : MPEG-4 Visual
Format profile              : Advanced Simple@L5
Format settings, BVOP       : 2
Format settings, QPel       : No
Format settings, GMC        : No warppoints
Format settings, Matrix     : Default (H.263)
Codec ID                    : XVID
Codec ID/Hint               : XviD
Duration                    : 1 h 48 min
Bit rate                    : 1 670 kb/s
Width                       : 720 pixels
Height                      : 304 pixels
Display aspect ratio        : 2.35:1
Frame rate                  : 29.970 (30000/1001) FPS
Color space                 : YUV
Chroma subsampling          : 4:2:0
Bit depth                   : 8 bits
Scan type                   : Progressive
Compression mode            : Lossy
Bits/(Pixel*Frame)          : 0.255
Stream size                 : 1.27 GiB (89%)
Writing library             : XviD 67

Audio

ID                          : 1
Format                      : AC-3
Format/Info                 : Audio Coding 3
Format settings, Endianness : Big
Codec ID                    : 2000
Duration                    : 1 h 48 min
Bit rate mode               : Constant
Bit rate                    : 192 kb/s
Channel(s)                  : 2 channels
Channel positions           : Front: L R
Sampling rate               : 44.1 kHz
Frame rate                  : 28.711 FPS (1536 SPF)
Bit depth                   : 16 bits
Compression mode            : Lossy
Stream size                 : 150 MiB (10%)
Alignment                   : Aligned on interleaves
Interleave, duration        : 70  ms (2.09 video frames)
Interleave, preload duratio : 208  ms
Title                       : English
Service kind                : Complete Main


This NFO File was rendered by NFOmation.net


Bookmark and Share

<Mascot>
[ Sitemap ]

aa21