NFOmation.net - Your Ultimate NFO Upload Resource! Viewing NFO file: NFO.txt NFO.txt


General
Complete name                            : D:\Re-n-e-ga-d-e-s.2017.CAM.READNFO.XViD-26k.avi
Format                                   : AVI
Format/Info                              : Audio Video Interleave
File size                                : 1.38 GiB
Duration                                 : 1 h 36 min
Overall bit rate                         : 2 047 kb/s

Video
ID                                       : 0
Format                                   : MPEG-4 Visual
Format profile                           : Simple@L3
Format settings, BVOP                    : 1
Format settings, QPel                    : No
Format settings, GMC                     : No warppoints
Format settings, Matrix                  : Default (H.263)
Muxing mode                              : Packed bitstream
Codec ID                                 : DX50
Codec ID/Hint                            : DivX 5
Duration                                 : 1 h 36 min
Bit rate                                 : 872 kb/s
Nominal bit rate                         : 4 854 kb/s
Width                                    : 624 pixels
Height                                   : 272 pixels
Display aspect ratio                     : 2.25:1
Frame rate                               : 24.000 FPS
Color space                              : YUV
Chroma subsampling                       : 4:2:0
Bit depth                                : 8 bits
Scan type                                : Progressive
Compression mode                         : Lossy
Bits/(Pixel*Frame)                       : 0.214
Stream size                              : 603 MiB (43%)
Writing library                          : XviD 1.1.2 (UTC 2006-11-01)

Audio
ID                                       : 1
Format                                   : MPEG Audio
Format version                           : Version 1
Format profile                           : Layer 3
Mode                                     : Joint stereo
Mode extension                           : MS Stereo
Codec ID                                 : 55
Codec ID/Hint                            : MP3
Duration                                 : 1 h 36 min
Bit rate mode                            : Constant
Bit rate                                 : 112 kb/s
Channel(s)                               : 2 channels
Sampling rate                            : 48.0 kHz
Compression mode                         : Lossy
Delay relative to video                  : 10 ms
Stream size                              : 77.5 MiB (5%)
Alignment                                : Split accross interleaves
Interleave, duration                     : 24  ms (0.58 video frame)
Interleave, preload duration             : 60  ms


This NFO File was rendered by NFOmation.net


General
Complete name                            : D:\Re-n-e-ga-d-e-s.2017.CAM.READNFO.XViD-26k.avi
Format                                   : AVI
Format/Info                              : Audio Video Interleave
File size                                : 1.38 GiB
Duration                                 : 1 h 36 min
Overall bit rate                         : 2 047 kb/s

Video
ID                                       : 0
Format                                   : MPEG-4 Visual
Format profile                           : Simple@L3
Format settings, BVOP                    : 1
Format settings, QPel                    : No
Format settings, GMC                     : No warppoints
Format settings, Matrix                  : Default (H.263)
Muxing mode                              : Packed bitstream
Codec ID                                 : DX50
Codec ID/Hint                            : DivX 5
Duration                                 : 1 h 36 min
Bit rate                                 : 872 kb/s
Nominal bit rate                         : 4 854 kb/s
Width                                    : 624 pixels
Height                                   : 272 pixels
Display aspect ratio                     : 2.25:1
Frame rate                               : 24.000 FPS
Color space                              : YUV
Chroma subsampling                       : 4:2:0
Bit depth                                : 8 bits
Scan type                                : Progressive
Compression mode                         : Lossy
Bits/(Pixel*Frame)                       : 0.214
Stream size                              : 603 MiB (43%)
Writing library                          : XviD 1.1.2 (UTC 2006-11-01)

Audio
ID                                       : 1
Format                                   : MPEG Audio
Format version                           : Version 1
Format profile                           : Layer 3
Mode                                     : Joint stereo
Mode extension                           : MS Stereo
Codec ID                                 : 55
Codec ID/Hint                            : MP3
Duration                                 : 1 h 36 min
Bit rate mode                            : Constant
Bit rate                                 : 112 kb/s
Channel(s)                               : 2 channels
Sampling rate                            : 48.0 kHz
Compression mode                         : Lossy
Delay relative to video                  : 10 ms
Stream size                              : 77.5 MiB (5%)
Alignment                                : Split accross interleaves
Interleave, duration                     : 24  ms (0.58 video frame)
Interleave, preload duration             : 60  ms


This NFO File was rendered by NFOmation.net


Bookmark and Share

<Mascot>
[ Sitemap ]

aa21