NFOmation.net - Your Ultimate NFO Upload Resource! Viewing NFO file: NFO.txt NFO.txt


Complete name               : Wind.River.2017.CAM.READNFO.XViD-26k.avi
Format                      : AVI
Format/Info                 : Audio Video Interleave
File size                   : 1.41 GiB
Duration                    : 1h 40mn
Overall bit rate            : 2 002 Kbps
Writing library             : VirtualDub build 32839/release

Video
ID                          : 0
Format                      : MPEG-4 Visual
Format profile              : Advanced Simple@L5
Format settings, BVOP       : 2
Format settings, QPel       : Yes
Format settings, GMC        : No warppoints
Format settings, Matrix     : Default (H.263)
Muxing mode                 : Packed bitstream
Codec ID                    : XVID
Codec ID/Hint               : XviD
Duration                    : 1h 40mn
Bit rate                    : 1 863 Kbps
Width                       : 720 pixels
Height                      : 320 pixels
Display aspect ratio        : 2.25:1
Frame rate                  : 29.970 fps
Color space                 : YUV
Chroma subsampling          : 4:2:0
Bit depth                   : 8 bits
Scan type                   : Progressive
Compression mode            : Lossy
Bits/(Pixel*Frame)          : 0.270
Stream size                 : 1.31 GiB (93%)
Writing library             : XviD 67

Audio
ID                          : 1
Format                      : MPEG Audio
Format version              : Version 1
Format profile              : Layer 3
Mode                        : Joint stereo
Mode extension              : MS Stereo
Codec ID                    : 55
Codec ID/Hint               : MP3
Duration                    : 1h 40mn
Bit rate mode               : Constant
Bit rate                    : 128 Kbps
Channel(s)                  : 2 channels
Sampling rate               : 48.0 KHz
Compression mode            : Lossy
Delay relative to video     : 24ms
Stream size                 : 92.3 MiB (6%)
Alignment                   : Split accross interleaves
Interleave, duration        : 33 ms (1.00 video frame)
Writing library             : LAME3.99.5

Notes -

Took the source we were passed and went to work crop, resize, denoise and few other tweaks then jsut >>
remuxed audio.. ENJOY ...

 REASON FOR READNFO::

THIS DOES HAVE GHOSTED WATERMARK LIKE SOME OF OUR OTHER VIDS.. WE DID NOT ADD IT THAT IS THE WAY WE GOT IT



This NFO File was rendered by NFOmation.net


Complete name               : Wind.River.2017.CAM.READNFO.XViD-26k.avi
Format                      : AVI
Format/Info                 : Audio Video Interleave
File size                   : 1.41 GiB
Duration                    : 1h 40mn
Overall bit rate            : 2 002 Kbps
Writing library             : VirtualDub build 32839/release

Video
ID                          : 0
Format                      : MPEG-4 Visual
Format profile              : Advanced Simple@L5
Format settings, BVOP       : 2
Format settings, QPel       : Yes
Format settings, GMC        : No warppoints
Format settings, Matrix     : Default (H.263)
Muxing mode                 : Packed bitstream
Codec ID                    : XVID
Codec ID/Hint               : XviD
Duration                    : 1h 40mn
Bit rate                    : 1 863 Kbps
Width                       : 720 pixels
Height                      : 320 pixels
Display aspect ratio        : 2.25:1
Frame rate                  : 29.970 fps
Color space                 : YUV
Chroma subsampling          : 4:2:0
Bit depth                   : 8 bits
Scan type                   : Progressive
Compression mode            : Lossy
Bits/(Pixel*Frame)          : 0.270
Stream size                 : 1.31 GiB (93%)
Writing library             : XviD 67

Audio
ID                          : 1
Format                      : MPEG Audio
Format version              : Version 1
Format profile              : Layer 3
Mode                        : Joint stereo
Mode extension              : MS Stereo
Codec ID                    : 55
Codec ID/Hint               : MP3
Duration                    : 1h 40mn
Bit rate mode               : Constant
Bit rate                    : 128 Kbps
Channel(s)                  : 2 channels
Sampling rate               : 48.0 KHz
Compression mode            : Lossy
Delay relative to video     : 24ms
Stream size                 : 92.3 MiB (6%)
Alignment                   : Split accross interleaves
Interleave, duration        : 33 ms (1.00 video frame)
Writing library             : LAME3.99.5

Notes -

Took the source we were passed and went to work crop, resize, denoise and few other tweaks then jsut >>
remuxed audio.. ENJOY ...

 REASON FOR READNFO::

THIS DOES HAVE GHOSTED WATERMARK LIKE SOME OF OUR OTHER VIDS.. WE DID NOT ADD IT THAT IS THE WAY WE GOT IT



This NFO File was rendered by NFOmation.net


Bookmark and Share

<Mascot>
[ Sitemap ]

aa21