NFOmation.net - Your Ultimate NFO Upload Resource! Viewing NFO file: IT_2017_New_HDTS_x264_AC3_TiTAN.nfo IT_2017_New_HDTS_x264_AC3_TiTAN

https://i.imgur.com/QQlvFNj.jpg

Source: CPG -THX

http://www.imdb.com/title/tt1396484/

OK, Last go at this as this new source is very nice. Does not get better
than this for a cam... Enjoy.

General

Format                                   : Matroska
Format version                           : Version 2
File size                                : 2.20 GiB
Duration                                 : 2h 8mn
Overall bit rate mode                    : Variable
Overall bit rate                         : 2 446 Kbps

Video
ID                                       : 1
Format                                   : AVC
Format/Info                              : Advanced Video Codec
Format profile                           : High@L4.1
Format settings, CABAC                   : Yes
Format settings, ReFrames                : 3 frames
Codec ID                                 : V_MPEG4/ISO/AVC
Duration                                 : 2h 8mn
Bit rate mode                            : Variable
Bit rate                                 : 2 250 Kbps
Maximum bit rate                         : 40.0 Mbps
Width                                    : 720 pixels
Height                                   : 304 pixels
Display aspect ratio                     : 2.35:1
Frame rate mode                          : Constant
Frame rate                               : 60.000 fps
Color space                              : YUV
Chroma subsampling                       : 4:2:0
Bit depth                                : 8 bits
Scan type                                : Progressive
Bits/(Pixel*Frame)                       : 0.171
Stream size                              : 1.98 GiB (90%)
Default                                  : Yes
Forced                                   : No
Color primaries                          : BT.709
Transfer characteristics                 : BT.709
Matrix coefficients                      : BT.709

Audio
ID                                       : 2
Format                                   : MPEG Audio
Format version                           : Version 1
Format profile                           : Layer 3
Codec ID                                 : A_MPEG/L3
Codec ID/Hint                            : MP3
Duration                                 : 2h 8mn
Bit rate mode                            : Constant
Bit rate                                 : 192 Kbps
Channel(s)                               : 2 channels
Sampling rate                            : 44.1 KHz
Compression mode                         : Lossy
Stream size                              : 177 MiB (8%)
Writing library                          : LAME3.99.5
Language                                 : English
Default                                  : Yes
Forced                                   : No

https://i.imgur.com/cDOPKJW.png
https://i.imgur.com/md3958e.png
https://i.imgur.com/DyvsXZP.png
https://i.imgur.com/HtemiFK.png
https://i.imgur.com/SSCJKwW.png
https://i.imgur.com/CD8b9Zv.png
https://i.imgur.com/f4nPG5g.png
https://i.imgur.com/6gRoyxt.png
https://i.imgur.com/vpwnHPI.png
https://i.imgur.com/AHDJNGQ.png

ANYTHING TO OFFER-- COME FIND ME ;)

http://i.imgur.com/xdp1Tsj.png


This NFO File was rendered by NFOmation.net

https://i.imgur.com/QQlvFNj.jpg

Source: CPG -THX

http://www.imdb.com/title/tt1396484/

OK, Last go at this as this new source is very nice. Does not get better
than this for a cam... Enjoy.

General

Format                                   : Matroska
Format version                           : Version 2
File size                                : 2.20 GiB
Duration                                 : 2h 8mn
Overall bit rate mode                    : Variable
Overall bit rate                         : 2 446 Kbps

Video
ID                                       : 1
Format                                   : AVC
Format/Info                              : Advanced Video Codec
Format profile                           : High@L4.1
Format settings, CABAC                   : Yes
Format settings, ReFrames                : 3 frames
Codec ID                                 : V_MPEG4/ISO/AVC
Duration                                 : 2h 8mn
Bit rate mode                            : Variable
Bit rate                                 : 2 250 Kbps
Maximum bit rate                         : 40.0 Mbps
Width                                    : 720 pixels
Height                                   : 304 pixels
Display aspect ratio                     : 2.35:1
Frame rate mode                          : Constant
Frame rate                               : 60.000 fps
Color space                              : YUV
Chroma subsampling                       : 4:2:0
Bit depth                                : 8 bits
Scan type                                : Progressive
Bits/(Pixel*Frame)                       : 0.171
Stream size                              : 1.98 GiB (90%)
Default                                  : Yes
Forced                                   : No
Color primaries                          : BT.709
Transfer characteristics                 : BT.709
Matrix coefficients                      : BT.709

Audio
ID                                       : 2
Format                                   : MPEG Audio
Format version                           : Version 1
Format profile                           : Layer 3
Codec ID                                 : A_MPEG/L3
Codec ID/Hint                            : MP3
Duration                                 : 2h 8mn
Bit rate mode                            : Constant
Bit rate                                 : 192 Kbps
Channel(s)                               : 2 channels
Sampling rate                            : 44.1 KHz
Compression mode                         : Lossy
Stream size                              : 177 MiB (8%)
Writing library                          : LAME3.99.5
Language                                 : English
Default                                  : Yes
Forced                                   : No

https://i.imgur.com/cDOPKJW.png
https://i.imgur.com/md3958e.png
https://i.imgur.com/DyvsXZP.png
https://i.imgur.com/HtemiFK.png
https://i.imgur.com/SSCJKwW.png
https://i.imgur.com/CD8b9Zv.png
https://i.imgur.com/f4nPG5g.png
https://i.imgur.com/6gRoyxt.png
https://i.imgur.com/vpwnHPI.png
https://i.imgur.com/AHDJNGQ.png

ANYTHING TO OFFER-- COME FIND ME ;)

http://i.imgur.com/xdp1Tsj.png


This NFO File was rendered by NFOmation.net


Bookmark and Share

<Mascot>
[ Sitemap ]

aa21