NFOmation.net - Your Ultimate NFO Upload Resource! Viewing NFO file: nfo.txt nfo.txt

                                                                     ..
                                .--~*teu.           .ue~~%u.      < .z@8"`
                               dF     988Nx       .d88   z88i      !@88E
                              d888b   `8888>     x888E  *8888      '888E   u
                              ?8888>  98888F    :8888E   ^""        888E u@8NL
                               "**"  x88888~    98888E.=tWc.        888E`"88*"
                                    d8888*`     98888N  '888N       888E .dN.
                                  z8**"`   :    98888E   8888E      888E~8888
                .      .        :?.....  ..F    '8888E   8888E      888E '888&     .      .
              .@8c   .@8c      <""888888888~     ?888E   8888"      888E  9888.  .@8c   .@8c
             '%888" '%888"     8:  "888888*       "88&   888"     '"888*" 4888" '%888" '%888"
               ^*     ^*       ""    "**"`          ""==*""          ""    ""     ^*     ^*

                                 .m//oooo/:.```h``y +/```.:/+++/oyo
                                `:yNy+-``       h` s +/       ``-/yds:`
                              -sdy/.            h` s +/            `:sho-
                            :yh+.               h` o +/               `/yy-
                          -yh/`                 h` + +/                 `-yy.
                        `oh/........```         h` / +/           ``.....``:h+`
                       .hNhyyyyysssoo++/-`      h` / +/      `.-:/+oooossssoomy.
                      -mmdyyso+++++++o+++o/-`   h` : +/   `.:+/++++/////++oyyhNd-
                     -myoso++/:::::-.....-/+/-  h` - +/  .:+/-.....-:::::/++ossdm.
                    .ms-ysossyhyyyyhyyso:.``:+/`o+ .`y-`/o:` .:+syhhhhhhhyssooh/hd`
                    yh-hshysshhdmmddhysyhy+-` :s:+o.y:-s/` .+yhyyhdmmmmmddhyyhsh/ms
                   :N.yshohNMMMNMMMMMMMmyohy+` `y//h:-h. `/yhyhmMMMMMMNMMMMMdshyy/N-
                   hs:om+NMMMMMMMNMMMMMMMNsyh+` `d.``d- `+yhyNMMMMMMNNMMMMMMMMsdo/hs
                  `N-/yomMMMMMMMMMNNMMMMMMM+hs+  os +y  /omoMMMMMMMNMMMMMMMMMMN+d//m
                  -N :d/MMMMMMMMMMMMNMMMMMMm+do  /h oo  +ysmMMMMMNMMMMMMMMMMMMM+N/.N.
                  :m :d+MMMMMMMMMMMMMMNMMMMhsy+``s+ :h``/ohhMMMNMMMMMMMMMMMMMMM+N:`N.
                  -N :h+MMMMMMMMMMMMMMMMNMmodo--/h`. y+--ohsmNNMMMMMMMMMMMMMMMM+m:`N.
                  `N..ssdMMMMMMMMMMMMMMMNhsho/:+y` / `so/:oyyhNMMMMMMMMMMMMMMMNoy--m`
                   h/ +moMMMMMMMMMMMMMMmsyso++so`  o   +s++oshymMMMMMMMMMMMMMMydo`+y
                   /d :homMMMMMMMMMMMmyyyooosy:   .o.`  -ssoosyyymMMMMMMMMMMMN+d: d-
                    d/ +m+mNMMMMMMNdyyysssss/`    :s/.    :ysssoyyyhNMMMMMMMN+do`+y
                    .d-.ohshNNNNdyyyysyhsy+-`  ```+s+:`  ```:shsyyyhyyhNNNNd+hy..d.
                    .+h..+dhyyhodyyydyhy/.--` ..`.yss+``-.`. .+ohydhhyhshyyyho:.h:
                     ./h- ++yydsmdmhh+/+..--  -...yyd+  `.....+--/sdmddydhy+:.:h:
                    `..:hoo//:/.-:.:o+/++:-:- .--:+/s+:-...:-:++/+:--:-`/::+ohd..-`
                        `smhsooososooo+++/::.--.`   `  .::-:///+++sosoosssyhmo`
                          :dmdmdhyysyoso+o/::`      /  `.--/+ooosssyyhhddmNh-
                           `/dMMmmhdyyyss/-         +     -:-/syshyddmNMMh:
                             `:yNMNNmho/.           +      `-:::shmNMMNy-
                                ./dh/.`             +         .::/omy/`
                        ./o-      `++               +           `.y/         -o/.
                   `-/+o+/d/+`      /y:/oy:     .///y///.     /yooo.`      `o/h/+++/.
               `-/+o+//+::d`.+-   .sooooooh-  `o/:/:+:/:/+`  :hoooo+os`   -s. h:////+o+/-`
           `-/+o+/+/:/+:/+y/ `+:  `hsooooooh. o-/hoyhyoh/:o -hoooooosy`  /o` /y+/:+/:///+o+:-`
         -so+++:/+/://:/+:/d. `//  -doooooosy`h-oNyMMMyNo:h.yoooooood.  ++` `d/:+/://:/+::+++oo.
         d+://://:/+/://:/+os  `sosdNdoooooosy+/:yhhdhhy:/+yooooooodNdsss`  so+/://://:/+/://:+y
        .h///://:///://://:/y+ :NMMMMMhooooooss////+s+//+/ssoooooodMMMMMN/ +y/://://:///://://:h
        `d+/:+/://:/+/://://:y/`mMMMMMNyooooooy+`-:/+/:-`oyoooooohMMMMMMN.:y///://:///://://:/+h
         y////://://:///://:/+h::mMMMmhysooooooy/       +yooooooyyhmMMMm:-h+/://:///://://:////o
         -y/:/+/://://:///://:/h:.+:s: `ysooooooy      `hooooooys  /y/+.-h/://://:///://://::/y.
          o+//:///://://:/+/:///y:  `s` `yss+/-.`  .-://+syyyoss` .y`  :y///://:/+/://://:///++
          `y+:///://://:///://:/+y/  .o  `sh    ``.://+osyhNN--` `y.  /y+/://:/+/://://:///:+s`
           .y+/:///:+/://:/+/://:/so` //  +d-///////++++oydNd    +/ `oy/://:/+/://://:/+/:/+o`
            .s///:/+/://://:/+/:+/:+s-`s` sh-:oy:-----:+o--yh   .y`-so://:/+::+/://:/+::///o`
             .so:/+::+/://:/+:/+/:///o+y/ /s:mdo       .md-s/   +y+o///:/+:/+/://:/+:/+/:+o`
              `+s+:/+::+/://:/+::+//+ooo.  `:yy+       /yy:`    -ooo+//+:/+/://:/+:/+/:+o/
                -so+:/+/:+/:/+/+o+//-`       `+s-`o:`-/s+          `-//+o+/+/:/+:/+::+++.
                  :oso//+/+so//-`              `-:::::-`                `-/+os//+//+o+:
                    ./os+/-`                                                 `:/+s+:.

http://www.imdb.com/title/tt3532216/

Plot:

A pilot lands work for the CIA and as a drug runner in the south during the 1980s.

Sources - VIDEO: latino ....Thanks :P
          AUDIO: A Friend ....Thanks :P

Complete name               : American.Made.2017.CAM.XViD-26k.avi
Format                      : AVI
Format/Info                 : Audio Video Interleave
File size                   : 1.30 GiB
Duration                    : 1h 45mn
Overall bit rate mode       : Variable
Overall bit rate            : 1 766 Kbps
Writing library             : VirtualDub build 32839/release

Video
ID                          : 0
Format                      : MPEG-4 Visual
Format profile              : Advanced Simple@L5
Format settings, BVOP       : 2
Format settings, QPel       : Yes
Format settings, GMC        : No warppoints
Format settings, Matrix     : Default (H.263)
Muxing mode                 : Packed bitstream
Codec ID                    : XVID
Codec ID/Hint               : XviD
Duration                    : 1h 45mn
Bit rate                    : 1 618 Kbps
Width                       : 720 pixels
Height                      : 320 pixels
Display aspect ratio        : 2.25:1
Frame rate                  : 29.970 fps
Color space                 : YUV
Chroma subsampling          : 4:2:0
Bit depth                   : 8 bits
Scan type                   : Progressive
Compression mode            : Lossy
Bits/(Pixel*Frame)          : 0.234
Stream size                 : 1.19 GiB (92%)
Writing library             : XviD 67

Audio
ID                          : 1
Format                      : MPEG Audio
Format version              : Version 1
Format profile              : Layer 3
Mode                        : Joint stereo
Mode extension              : MS Stereo
Codec ID                    : 55
Codec ID/Hint               : MP3
Duration                    : 1h 45mn
Bit rate mode               : Variable
Bit rate                    : 134 Kbps
Channel(s)                  : 2 channels
Sampling rate               : 48.0 KHz
Compression mode            : Lossy
Stream size                 : 102 MiB (8%)
Alignment                   : Aligned on interleaves
Interleave, duration        : 24 ms (0.72 video frame)

Notes -

Took the latino vid which is NOT that great and went to work tryin to fix it up didnt hve much luck but >>
tis watchble for the most part ...

VID IS NOT THE GREATEST DOES HAVE FOCUS ISSUES AND COLORING ISSUES WE COULDNT FIX BUT KNOW ALOT OF PEOPLE >>
ARE WANTING TO SEE IT SO HERE IT IS TIL BETTER SOURCE COMES ALONG..

Screens:

https://imgur.com/Mnq3f0E.jpg
https://imgur.com/hrJco5D.jpg
https://imgur.com/Ig1cTQ9.jpg
https://imgur.com/dUziFZ3.jpg
https://imgur.com/p1EVyuo.jpg
https://imgur.com/a1VjBSo.jpg

Greetz:

To those that deserve it. You know who you are..

To all the people who have helped me  you know who you are

WE ARE CURRENTLY LOOKING FOR NEW VIDEO AND AUDIO PROVIDERS...

Anything to offer email us @: 26k@tuta.io

https://66.media.tumblr.com/41438753a1dd8e0e30b53aacd4f87293/tumblr_n7bnnx05t71qeablwo1_500.gif



This NFO File was rendered by NFOmation.net

                                                                     ..
                                .--~*teu.           .ue~~%u.      < .z@8"`
                               dF     988Nx       .d88   z88i      !@88E
                              d888b   `8888>     x888E  *8888      '888E   u
                              ?8888>  98888F    :8888E   ^""        888E u@8NL
                               "**"  x88888~    98888E.=tWc.        888E`"88*"
                                    d8888*`     98888N  '888N       888E .dN.
                                  z8**"`   :    98888E   8888E      888E~8888
                .      .        :?.....  ..F    '8888E   8888E      888E '888&     .      .
              .@8c   .@8c      <""888888888~     ?888E   8888"      888E  9888.  .@8c   .@8c
             '%888" '%888"     8:  "888888*       "88&   888"     '"888*" 4888" '%888" '%888"
               ^*     ^*       ""    "**"`          ""==*""          ""    ""     ^*     ^*

                                 .m//oooo/:.```h``y +/```.:/+++/oyo
                                `:yNy+-``       h` s +/       ``-/yds:`
                              -sdy/.            h` s +/            `:sho-
                            :yh+.               h` o +/               `/yy-
                          -yh/`                 h` + +/                 `-yy.
                        `oh/........```         h` / +/           ``.....``:h+`
                       .hNhyyyyysssoo++/-`      h` / +/      `.-:/+oooossssoomy.
                      -mmdyyso+++++++o+++o/-`   h` : +/   `.:+/++++/////++oyyhNd-
                     -myoso++/:::::-.....-/+/-  h` - +/  .:+/-.....-:::::/++ossdm.
                    .ms-ysossyhyyyyhyyso:.``:+/`o+ .`y-`/o:` .:+syhhhhhhhyssooh/hd`
                    yh-hshysshhdmmddhysyhy+-` :s:+o.y:-s/` .+yhyyhdmmmmmddhyyhsh/ms
                   :N.yshohNMMMNMMMMMMMmyohy+` `y//h:-h. `/yhyhmMMMMMMNMMMMMdshyy/N-
                   hs:om+NMMMMMMMNMMMMMMMNsyh+` `d.``d- `+yhyNMMMMMMNNMMMMMMMMsdo/hs
                  `N-/yomMMMMMMMMMNNMMMMMMM+hs+  os +y  /omoMMMMMMMNMMMMMMMMMMN+d//m
                  -N :d/MMMMMMMMMMMMNMMMMMMm+do  /h oo  +ysmMMMMMNMMMMMMMMMMMMM+N/.N.
                  :m :d+MMMMMMMMMMMMMMNMMMMhsy+``s+ :h``/ohhMMMNMMMMMMMMMMMMMMM+N:`N.
                  -N :h+MMMMMMMMMMMMMMMMNMmodo--/h`. y+--ohsmNNMMMMMMMMMMMMMMMM+m:`N.
                  `N..ssdMMMMMMMMMMMMMMMNhsho/:+y` / `so/:oyyhNMMMMMMMMMMMMMMMNoy--m`
                   h/ +moMMMMMMMMMMMMMMmsyso++so`  o   +s++oshymMMMMMMMMMMMMMMydo`+y
                   /d :homMMMMMMMMMMMmyyyooosy:   .o.`  -ssoosyyymMMMMMMMMMMMN+d: d-
                    d/ +m+mNMMMMMMNdyyysssss/`    :s/.    :ysssoyyyhNMMMMMMMN+do`+y
                    .d-.ohshNNNNdyyyysyhsy+-`  ```+s+:`  ```:shsyyyhyyhNNNNd+hy..d.
                    .+h..+dhyyhodyyydyhy/.--` ..`.yss+``-.`. .+ohydhhyhshyyyho:.h:
                     ./h- ++yydsmdmhh+/+..--  -...yyd+  `.....+--/sdmddydhy+:.:h:
                    `..:hoo//:/.-:.:o+/++:-:- .--:+/s+:-...:-:++/+:--:-`/::+ohd..-`
                        `smhsooososooo+++/::.--.`   `  .::-:///+++sosoosssyhmo`
                          :dmdmdhyysyoso+o/::`      /  `.--/+ooosssyyhhddmNh-
                           `/dMMmmhdyyyss/-         +     -:-/syshyddmNMMh:
                             `:yNMNNmho/.           +      `-:::shmNMMNy-
                                ./dh/.`             +         .::/omy/`
                        ./o-      `++               +           `.y/         -o/.
                   `-/+o+/d/+`      /y:/oy:     .///y///.     /yooo.`      `o/h/+++/.
               `-/+o+//+::d`.+-   .sooooooh-  `o/:/:+:/:/+`  :hoooo+os`   -s. h:////+o+/-`
           `-/+o+/+/:/+:/+y/ `+:  `hsooooooh. o-/hoyhyoh/:o -hoooooosy`  /o` /y+/:+/:///+o+:-`
         -so+++:/+/://:/+:/d. `//  -doooooosy`h-oNyMMMyNo:h.yoooooood.  ++` `d/:+/://:/+::+++oo.
         d+://://:/+/://:/+os  `sosdNdoooooosy+/:yhhdhhy:/+yooooooodNdsss`  so+/://://:/+/://:+y
        .h///://:///://://:/y+ :NMMMMMhooooooss////+s+//+/ssoooooodMMMMMN/ +y/://://:///://://:h
        `d+/:+/://:/+/://://:y/`mMMMMMNyooooooy+`-:/+/:-`oyoooooohMMMMMMN.:y///://:///://://:/+h
         y////://://:///://:/+h::mMMMmhysooooooy/       +yooooooyyhmMMMm:-h+/://:///://://:////o
         -y/:/+/://://:///://:/h:.+:s: `ysooooooy      `hooooooys  /y/+.-h/://://:///://://::/y.
          o+//:///://://:/+/:///y:  `s` `yss+/-.`  .-://+syyyoss` .y`  :y///://:/+/://://:///++
          `y+:///://://:///://:/+y/  .o  `sh    ``.://+osyhNN--` `y.  /y+/://:/+/://://:///:+s`
           .y+/:///:+/://:/+/://:/so` //  +d-///////++++oydNd    +/ `oy/://:/+/://://:/+/:/+o`
            .s///:/+/://://:/+/:+/:+s-`s` sh-:oy:-----:+o--yh   .y`-so://:/+::+/://:/+::///o`
             .so:/+::+/://:/+:/+/:///o+y/ /s:mdo       .md-s/   +y+o///:/+:/+/://:/+:/+/:+o`
              `+s+:/+::+/://:/+::+//+ooo.  `:yy+       /yy:`    -ooo+//+:/+/://:/+:/+/:+o/
                -so+:/+/:+/:/+/+o+//-`       `+s-`o:`-/s+          `-//+o+/+/:/+:/+::+++.
                  :oso//+/+so//-`              `-:::::-`                `-/+os//+//+o+:
                    ./os+/-`                                                 `:/+s+:.

http://www.imdb.com/title/tt3532216/

Plot:

A pilot lands work for the CIA and as a drug runner in the south during the 1980s.

Sources - VIDEO: latino ....Thanks :P
          AUDIO: A Friend ....Thanks :P

Complete name               : American.Made.2017.CAM.XViD-26k.avi
Format                      : AVI
Format/Info                 : Audio Video Interleave
File size                   : 1.30 GiB
Duration                    : 1h 45mn
Overall bit rate mode       : Variable
Overall bit rate            : 1 766 Kbps
Writing library             : VirtualDub build 32839/release

Video
ID                          : 0
Format                      : MPEG-4 Visual
Format profile              : Advanced Simple@L5
Format settings, BVOP       : 2
Format settings, QPel       : Yes
Format settings, GMC        : No warppoints
Format settings, Matrix     : Default (H.263)
Muxing mode                 : Packed bitstream
Codec ID                    : XVID
Codec ID/Hint               : XviD
Duration                    : 1h 45mn
Bit rate                    : 1 618 Kbps
Width                       : 720 pixels
Height                      : 320 pixels
Display aspect ratio        : 2.25:1
Frame rate                  : 29.970 fps
Color space                 : YUV
Chroma subsampling          : 4:2:0
Bit depth                   : 8 bits
Scan type                   : Progressive
Compression mode            : Lossy
Bits/(Pixel*Frame)          : 0.234
Stream size                 : 1.19 GiB (92%)
Writing library             : XviD 67

Audio
ID                          : 1
Format                      : MPEG Audio
Format version              : Version 1
Format profile              : Layer 3
Mode                        : Joint stereo
Mode extension              : MS Stereo
Codec ID                    : 55
Codec ID/Hint               : MP3
Duration                    : 1h 45mn
Bit rate mode               : Variable
Bit rate                    : 134 Kbps
Channel(s)                  : 2 channels
Sampling rate               : 48.0 KHz
Compression mode            : Lossy
Stream size                 : 102 MiB (8%)
Alignment                   : Aligned on interleaves
Interleave, duration        : 24 ms (0.72 video frame)

Notes -

Took the latino vid which is NOT that great and went to work tryin to fix it up didnt hve much luck but >>
tis watchble for the most part ...

VID IS NOT THE GREATEST DOES HAVE FOCUS ISSUES AND COLORING ISSUES WE COULDNT FIX BUT KNOW ALOT OF PEOPLE >>
ARE WANTING TO SEE IT SO HERE IT IS TIL BETTER SOURCE COMES ALONG..

Screens:

https://imgur.com/Mnq3f0E.jpg
https://imgur.com/hrJco5D.jpg
https://imgur.com/Ig1cTQ9.jpg
https://imgur.com/dUziFZ3.jpg
https://imgur.com/p1EVyuo.jpg
https://imgur.com/a1VjBSo.jpg

Greetz:

To those that deserve it. You know who you are..

To all the people who have helped me  you know who you are

WE ARE CURRENTLY LOOKING FOR NEW VIDEO AND AUDIO PROVIDERS...

Anything to offer email us @: 26k@tuta.io

https://66.media.tumblr.com/41438753a1dd8e0e30b53aacd4f87293/tumblr_n7bnnx05t71qeablwo1_500.gif



This NFO File was rendered by NFOmation.net


Bookmark and Share

<Mascot>
[ Sitemap ]

aa21