NFOmation.net - Your Ultimate NFO Upload Resource! Viewing NFO file: NFO.NFO NFO.NFO

                                                                     ..
                                .--~*teu.           .ue~~%u.      < .z@8"`
                               dF     988Nx       .d88   z88i      !@88E
                              d888b   `8888>     x888E  *8888      '888E   u
                              ?8888>  98888F    :8888E   ^""        888E u@8NL
                               "**"  x88888~    98888E.=tWc.        888E`"88*"
                                    d8888*`     98888N  '888N       888E .dN.
                                  z8**"`   :    98888E   8888E      888E~8888
                .      .        :?.....  ..F    '8888E   8888E      888E '888&     .      .
              .@8c   .@8c      <""888888888~     ?888E   8888"      888E  9888.  .@8c   .@8c
             '%888" '%888"     8:  "888888*       "88&   888"     '"888*" 4888" '%888" '%888"
               ^*     ^*       ""    "**"`          ""==*""          ""    ""     ^*     ^*

                                 .m//oooo/:.```h``y +/```.:/+++/oyo
                                `:yNy+-``       h` s +/       ``-/yds:`
                              -sdy/.            h` s +/            `:sho-
                            :yh+.               h` o +/               `/yy-
                          -yh/`                 h` + +/                 `-yy.
                        `oh/........```         h` / +/           ``.....``:h+`
                       .hNhyyyyysssoo++/-`      h` / +/      `.-:/+oooossssoomy.
                      -mmdyyso+++++++o+++o/-`   h` : +/   `.:+/++++/////++oyyhNd-
                     -myoso++/:::::-.....-/+/-  h` - +/  .:+/-.....-:::::/++ossdm.
                    .ms-ysossyhyyyyhyyso:.``:+/`o+ .`y-`/o:` .:+syhhhhhhhyssooh/hd`
                    yh-hshysshhdmmddhysyhy+-` :s:+o.y:-s/` .+yhyyhdmmmmmddhyyhsh/ms
                   :N.yshohNMMMNMMMMMMMmyohy+` `y//h:-h. `/yhyhmMMMMMMNMMMMMdshyy/N-
                   hs:om+NMMMMMMMNMMMMMMMNsyh+` `d.``d- `+yhyNMMMMMMNNMMMMMMMMsdo/hs
                  `N-/yomMMMMMMMMMNNMMMMMMM+hs+  os +y  /omoMMMMMMMNMMMMMMMMMMN+d//m
                  -N :d/MMMMMMMMMMMMNMMMMMMm+do  /h oo  +ysmMMMMMNMMMMMMMMMMMMM+N/.N.
                  :m :d+MMMMMMMMMMMMMMNMMMMhsy+``s+ :h``/ohhMMMNMMMMMMMMMMMMMMM+N:`N.
                  -N :h+MMMMMMMMMMMMMMMMNMmodo--/h`. y+--ohsmNNMMMMMMMMMMMMMMMM+m:`N.
                  `N..ssdMMMMMMMMMMMMMMMNhsho/:+y` / `so/:oyyhNMMMMMMMMMMMMMMMNoy--m`
                   h/ +moMMMMMMMMMMMMMMmsyso++so`  o   +s++oshymMMMMMMMMMMMMMMydo`+y
                   /d :homMMMMMMMMMMMmyyyooosy:   .o.`  -ssoosyyymMMMMMMMMMMMN+d: d-
                    d/ +m+mNMMMMMMNdyyysssss/`    :s/.    :ysssoyyyhNMMMMMMMN+do`+y
                    .d-.ohshNNNNdyyyysyhsy+-`  ```+s+:`  ```:shsyyyhyyhNNNNd+hy..d.
                    .+h..+dhyyhodyyydyhy/.--` ..`.yss+``-.`. .+ohydhhyhshyyyho:.h:
                     ./h- ++yydsmdmhh+/+..--  -...yyd+  `.....+--/sdmddydhy+:.:h:
                    `..:hoo//:/.-:.:o+/++:-:- .--:+/s+:-...:-:++/+:--:-`/::+ohd..-`
                        `smhsooososooo+++/::.--.`   `  .::-:///+++sosoosssyhmo`
                          :dmdmdhyysyoso+o/::`      /  `.--/+ooosssyyhhddmNh-
                           `/dMMmmhdyyyss/-         +     -:-/syshyddmNMMh:
                             `:yNMNNmho/.           +      `-:::shmNMMNy-
                                ./dh/.`             +         .::/omy/`
                        ./o-      `++               +           `.y/         -o/.
                   `-/+o+/d/+`      /y:/oy:     .///y///.     /yooo.`      `o/h/+++/.
               `-/+o+//+::d`.+-   .sooooooh-  `o/:/:+:/:/+`  :hoooo+os`   -s. h:////+o+/-`
           `-/+o+/+/:/+:/+y/ `+:  `hsooooooh. o-/hoyhyoh/:o -hoooooosy`  /o` /y+/:+/:///+o+:-`
         -so+++:/+/://:/+:/d. `//  -doooooosy`h-oNyMMMyNo:h.yoooooood.  ++` `d/:+/://:/+::+++oo.
         d+://://:/+/://:/+os  `sosdNdoooooosy+/:yhhdhhy:/+yooooooodNdsss`  so+/://://:/+/://:+y
        .h///://:///://://:/y+ :NMMMMMhooooooss////+s+//+/ssoooooodMMMMMN/ +y/://://:///://://:h
        `d+/:+/://:/+/://://:y/`mMMMMMNyooooooy+`-:/+/:-`oyoooooohMMMMMMN.:y///://:///://://:/+h
         y////://://:///://:/+h::mMMMmhysooooooy/       +yooooooyyhmMMMm:-h+/://:///://://:////o
         -y/:/+/://://:///://:/h:.+:s: `ysooooooy      `hooooooys  /y/+.-h/://://:///://://::/y.
          o+//:///://://:/+/:///y:  `s` `yss+/-.`  .-://+syyyoss` .y`  :y///://:/+/://://:///++
          `y+:///://://:///://:/+y/  .o  `sh    ``.://+osyhNN--` `y.  /y+/://:/+/://://:///:+s`
           .y+/:///:+/://:/+/://:/so` //  +d-///////++++oydNd    +/ `oy/://:/+/://://:/+/:/+o`
            .s///:/+/://://:/+/:+/:+s-`s` sh-:oy:-----:+o--yh   .y`-so://:/+::+/://:/+::///o`
             .so:/+::+/://:/+:/+/:///o+y/ /s:mdo       .md-s/   +y+o///:/+:/+/://:/+:/+/:+o`
              `+s+:/+::+/://:/+::+//+ooo.  `:yy+       /yy:`    -ooo+//+:/+/://:/+:/+/:+o/
                -so+:/+/:+/:/+/+o+//-`       `+s-`o:`-/s+          `-//+o+/+/:/+:/+::+++.
                  :oso//+/+so//-`              `-:::::-`                `-/+os//+//+o+:
                    ./os+/-`                                                 `:/+s+:.

http://www.imdb.com/title/tt4649466/

Plot:

When their headquarters are destroyed and the world is held hostage, the Kingsman's journey leads them >>
to the discovery of an allied spy organization in the US. These two elite secret organizations must band >>
together to defeat a common enemy.

Sources - VIDEO: Kingsman2.2017.TS_Mandarin_HOMEDRAGON777/ A Friend  ....Thanks :P
          AUDIO: A Friend ....Thanks :P

Complete name               : Kingsman.The.Golden.Circle.2017.CAM.READNFO.XViD-26k.avi
Format                      : AVI
Format/Info                 : Audio Video Interleave
File size                   : 1.59 GiB
Duration                    : 2h 15mn
Overall bit rate            : 1 683 Kbps
Writing library             : VirtualDub build 32839/release

Video
ID                          : 0
Format                      : MPEG-4 Visual
Format profile              : Advanced Simple@L5
Format settings, BVOP       : 2
Format settings, QPel       : Yes
Format settings, GMC        : No warppoints
Format settings, Matrix     : Default (H.263)
Muxing mode                 : Packed bitstream
Codec ID                    : XVID
Codec ID/Hint               : XviD
Duration                    : 2h 15mn
Bit rate                    : 1 545 Kbps
Width                       : 720 pixels
Height                      : 292 pixels
Display aspect ratio        : 2.466
Frame rate                  : 23.976 fps
Color space                 : YUV
Chroma subsampling          : 4:2:0
Bit depth                   : 8 bits
Scan type                   : Progressive
Compression mode            : Lossy
Bits/(Pixel*Frame)          : 0.307
Stream size                 : 1.46 GiB (92%)
Writing library             : XviD 67

Audio
ID                          : 1
Format                      : MPEG Audio
Format version              : Version 1
Format profile              : Layer 3
Mode                        : Joint stereo
Codec ID                    : 55
Codec ID/Hint               : MP3
Duration                    : 2h 15mn
Bit rate mode               : Constant
Bit rate                    : 128 Kbps
Channel(s)                  : 2 channels
Sampling rate               : 44.1 KHz
Compression mode            : Lossy
Stream size                 : 124 MiB (8%)
Alignment                   : Split accross interleaves
Interleave, duration        : 42 ms (1.00 video frame)
Writing library             : LAME3.99r
Encoding settings           : -m j -V 4 -q 2 -lowpass 17 -b 128

Notes -

REASON FOR READNFO.... THIS VID DOES HAVE HC CHISUBS AND CHISITE WATERMARK THAT FLOATS LIKE THE RUSSIAN >>
VIDEOS DO..

Took the nice chisub vid and deflickered it and sharpened it up a touch.. then had to cut 2 min off sum >>
vobs we have to add ending to it.. then synced the audio fromt he vobs we have to it (thanks bro for >>
the sync job) ... we are working on the vobs and we were cuttin in pieces from the russian vid but this >>
actually fits better so using it to cut into other vid and got other audio for it so will b a NEW SOURCES >>
CAM coming in near future..

Screens:

https://imgur.com/QUpnFFD.jpg
https://imgur.com/Wvf4DOp.jpg
https://imgur.com/GtYVUxz.jpg
https://imgur.com/fVQmdme.jpg
https://imgur.com/XpOQLAc.jpg
https://imgur.com/Fk2PE1D.jpg

Greetz:

To those that deserve it. You know who you are..

To all the people who have helped me  you know who you are

WE ARE CURRENTLY LOOKING FOR NEW VIDEO AND AUDIO PROVIDERS...

Anything to offer email us @: 26k@tuta.io

https://66.media.tumblr.com/41438753a1dd8e0e30b53aacd4f87293/tumblr_n7bnnx05t71qeablwo1_500.gif


This NFO File was rendered by NFOmation.net

                                                                     ..
                                .--~*teu.           .ue~~%u.      < .z@8"`
                               dF     988Nx       .d88   z88i      !@88E
                              d888b   `8888>     x888E  *8888      '888E   u
                              ?8888>  98888F    :8888E   ^""        888E u@8NL
                               "**"  x88888~    98888E.=tWc.        888E`"88*"
                                    d8888*`     98888N  '888N       888E .dN.
                                  z8**"`   :    98888E   8888E      888E~8888
                .      .        :?.....  ..F    '8888E   8888E      888E '888&     .      .
              .@8c   .@8c      <""888888888~     ?888E   8888"      888E  9888.  .@8c   .@8c
             '%888" '%888"     8:  "888888*       "88&   888"     '"888*" 4888" '%888" '%888"
               ^*     ^*       ""    "**"`          ""==*""          ""    ""     ^*     ^*

                                 .m//oooo/:.```h``y +/```.:/+++/oyo
                                `:yNy+-``       h` s +/       ``-/yds:`
                              -sdy/.            h` s +/            `:sho-
                            :yh+.               h` o +/               `/yy-
                          -yh/`                 h` + +/                 `-yy.
                        `oh/........```         h` / +/           ``.....``:h+`
                       .hNhyyyyysssoo++/-`      h` / +/      `.-:/+oooossssoomy.
                      -mmdyyso+++++++o+++o/-`   h` : +/   `.:+/++++/////++oyyhNd-
                     -myoso++/:::::-.....-/+/-  h` - +/  .:+/-.....-:::::/++ossdm.
                    .ms-ysossyhyyyyhyyso:.``:+/`o+ .`y-`/o:` .:+syhhhhhhhyssooh/hd`
                    yh-hshysshhdmmddhysyhy+-` :s:+o.y:-s/` .+yhyyhdmmmmmddhyyhsh/ms
                   :N.yshohNMMMNMMMMMMMmyohy+` `y//h:-h. `/yhyhmMMMMMMNMMMMMdshyy/N-
                   hs:om+NMMMMMMMNMMMMMMMNsyh+` `d.``d- `+yhyNMMMMMMNNMMMMMMMMsdo/hs
                  `N-/yomMMMMMMMMMNNMMMMMMM+hs+  os +y  /omoMMMMMMMNMMMMMMMMMMN+d//m
                  -N :d/MMMMMMMMMMMMNMMMMMMm+do  /h oo  +ysmMMMMMNMMMMMMMMMMMMM+N/.N.
                  :m :d+MMMMMMMMMMMMMMNMMMMhsy+``s+ :h``/ohhMMMNMMMMMMMMMMMMMMM+N:`N.
                  -N :h+MMMMMMMMMMMMMMMMNMmodo--/h`. y+--ohsmNNMMMMMMMMMMMMMMMM+m:`N.
                  `N..ssdMMMMMMMMMMMMMMMNhsho/:+y` / `so/:oyyhNMMMMMMMMMMMMMMMNoy--m`
                   h/ +moMMMMMMMMMMMMMMmsyso++so`  o   +s++oshymMMMMMMMMMMMMMMydo`+y
                   /d :homMMMMMMMMMMMmyyyooosy:   .o.`  -ssoosyyymMMMMMMMMMMMN+d: d-
                    d/ +m+mNMMMMMMNdyyysssss/`    :s/.    :ysssoyyyhNMMMMMMMN+do`+y
                    .d-.ohshNNNNdyyyysyhsy+-`  ```+s+:`  ```:shsyyyhyyhNNNNd+hy..d.
                    .+h..+dhyyhodyyydyhy/.--` ..`.yss+``-.`. .+ohydhhyhshyyyho:.h:
                     ./h- ++yydsmdmhh+/+..--  -...yyd+  `.....+--/sdmddydhy+:.:h:
                    `..:hoo//:/.-:.:o+/++:-:- .--:+/s+:-...:-:++/+:--:-`/::+ohd..-`
                        `smhsooososooo+++/::.--.`   `  .::-:///+++sosoosssyhmo`
                          :dmdmdhyysyoso+o/::`      /  `.--/+ooosssyyhhddmNh-
                           `/dMMmmhdyyyss/-         +     -:-/syshyddmNMMh:
                             `:yNMNNmho/.           +      `-:::shmNMMNy-
                                ./dh/.`             +         .::/omy/`
                        ./o-      `++               +           `.y/         -o/.
                   `-/+o+/d/+`      /y:/oy:     .///y///.     /yooo.`      `o/h/+++/.
               `-/+o+//+::d`.+-   .sooooooh-  `o/:/:+:/:/+`  :hoooo+os`   -s. h:////+o+/-`
           `-/+o+/+/:/+:/+y/ `+:  `hsooooooh. o-/hoyhyoh/:o -hoooooosy`  /o` /y+/:+/:///+o+:-`
         -so+++:/+/://:/+:/d. `//  -doooooosy`h-oNyMMMyNo:h.yoooooood.  ++` `d/:+/://:/+::+++oo.
         d+://://:/+/://:/+os  `sosdNdoooooosy+/:yhhdhhy:/+yooooooodNdsss`  so+/://://:/+/://:+y
        .h///://:///://://:/y+ :NMMMMMhooooooss////+s+//+/ssoooooodMMMMMN/ +y/://://:///://://:h
        `d+/:+/://:/+/://://:y/`mMMMMMNyooooooy+`-:/+/:-`oyoooooohMMMMMMN.:y///://:///://://:/+h
         y////://://:///://:/+h::mMMMmhysooooooy/       +yooooooyyhmMMMm:-h+/://:///://://:////o
         -y/:/+/://://:///://:/h:.+:s: `ysooooooy      `hooooooys  /y/+.-h/://://:///://://::/y.
          o+//:///://://:/+/:///y:  `s` `yss+/-.`  .-://+syyyoss` .y`  :y///://:/+/://://:///++
          `y+:///://://:///://:/+y/  .o  `sh    ``.://+osyhNN--` `y.  /y+/://:/+/://://:///:+s`
           .y+/:///:+/://:/+/://:/so` //  +d-///////++++oydNd    +/ `oy/://:/+/://://:/+/:/+o`
            .s///:/+/://://:/+/:+/:+s-`s` sh-:oy:-----:+o--yh   .y`-so://:/+::+/://:/+::///o`
             .so:/+::+/://:/+:/+/:///o+y/ /s:mdo       .md-s/   +y+o///:/+:/+/://:/+:/+/:+o`
              `+s+:/+::+/://:/+::+//+ooo.  `:yy+       /yy:`    -ooo+//+:/+/://:/+:/+/:+o/
                -so+:/+/:+/:/+/+o+//-`       `+s-`o:`-/s+          `-//+o+/+/:/+:/+::+++.
                  :oso//+/+so//-`              `-:::::-`                `-/+os//+//+o+:
                    ./os+/-`                                                 `:/+s+:.

http://www.imdb.com/title/tt4649466/

Plot:

When their headquarters are destroyed and the world is held hostage, the Kingsman's journey leads them >>
to the discovery of an allied spy organization in the US. These two elite secret organizations must band >>
together to defeat a common enemy.

Sources - VIDEO: Kingsman2.2017.TS_Mandarin_HOMEDRAGON777/ A Friend  ....Thanks :P
          AUDIO: A Friend ....Thanks :P

Complete name               : Kingsman.The.Golden.Circle.2017.CAM.READNFO.XViD-26k.avi
Format                      : AVI
Format/Info                 : Audio Video Interleave
File size                   : 1.59 GiB
Duration                    : 2h 15mn
Overall bit rate            : 1 683 Kbps
Writing library             : VirtualDub build 32839/release

Video
ID                          : 0
Format                      : MPEG-4 Visual
Format profile              : Advanced Simple@L5
Format settings, BVOP       : 2
Format settings, QPel       : Yes
Format settings, GMC        : No warppoints
Format settings, Matrix     : Default (H.263)
Muxing mode                 : Packed bitstream
Codec ID                    : XVID
Codec ID/Hint               : XviD
Duration                    : 2h 15mn
Bit rate                    : 1 545 Kbps
Width                       : 720 pixels
Height                      : 292 pixels
Display aspect ratio        : 2.466
Frame rate                  : 23.976 fps
Color space                 : YUV
Chroma subsampling          : 4:2:0
Bit depth                   : 8 bits
Scan type                   : Progressive
Compression mode            : Lossy
Bits/(Pixel*Frame)          : 0.307
Stream size                 : 1.46 GiB (92%)
Writing library             : XviD 67

Audio
ID                          : 1
Format                      : MPEG Audio
Format version              : Version 1
Format profile              : Layer 3
Mode                        : Joint stereo
Codec ID                    : 55
Codec ID/Hint               : MP3
Duration                    : 2h 15mn
Bit rate mode               : Constant
Bit rate                    : 128 Kbps
Channel(s)                  : 2 channels
Sampling rate               : 44.1 KHz
Compression mode            : Lossy
Stream size                 : 124 MiB (8%)
Alignment                   : Split accross interleaves
Interleave, duration        : 42 ms (1.00 video frame)
Writing library             : LAME3.99r
Encoding settings           : -m j -V 4 -q 2 -lowpass 17 -b 128

Notes -

REASON FOR READNFO.... THIS VID DOES HAVE HC CHISUBS AND CHISITE WATERMARK THAT FLOATS LIKE THE RUSSIAN >>
VIDEOS DO..

Took the nice chisub vid and deflickered it and sharpened it up a touch.. then had to cut 2 min off sum >>
vobs we have to add ending to it.. then synced the audio fromt he vobs we have to it (thanks bro for >>
the sync job) ... we are working on the vobs and we were cuttin in pieces from the russian vid but this >>
actually fits better so using it to cut into other vid and got other audio for it so will b a NEW SOURCES >>
CAM coming in near future..

Screens:

https://imgur.com/QUpnFFD.jpg
https://imgur.com/Wvf4DOp.jpg
https://imgur.com/GtYVUxz.jpg
https://imgur.com/fVQmdme.jpg
https://imgur.com/XpOQLAc.jpg
https://imgur.com/Fk2PE1D.jpg

Greetz:

To those that deserve it. You know who you are..

To all the people who have helped me  you know who you are

WE ARE CURRENTLY LOOKING FOR NEW VIDEO AND AUDIO PROVIDERS...

Anything to offer email us @: 26k@tuta.io

https://66.media.tumblr.com/41438753a1dd8e0e30b53aacd4f87293/tumblr_n7bnnx05t71qeablwo1_500.gif


This NFO File was rendered by NFOmation.net


Bookmark and Share

<Mascot>
[ Sitemap ]

aa21