NFOmation.net - Your Ultimate NFO Upload Resource! Viewing NFO file: The_Flash__S04E01_.txt The_Flash__S04E01_.txt

General
Unique ID                                : 188543023437848941470224292570708573048 (0x8DD810C246CFBD >>
1821C0C2F568FFB78)
Complete name                            : C:\Users\Cristian Cabrera\Downloads\Carpeta\The Flash (S04E02) >>
WEB-DL 1080p Subtitulada\The Flash (S04E01).mkv
Format                                   : Matroska
Format version                           : Version 4 / Version 2
File size                                : 1.02 GiB
Duration                                 : 42 min 21 s
Overall bit rate                         : 3 449 kb/s
Movie name                               : The Flash (S04E01) Encode by Invulnever - Pocos Megas HD
Encoded date                             : UTC 2017-10-22 00:57:23
Writing application                      : mkvmerge v8.3.0 ('Over the Horizon') 64bit
Writing library                          : libebml v1.3.1 + libmatroska v1.4.2

Video
ID                                       : 1
Format                                   : AVC
Format/Info                              : Advanced Video Codec
Format profile                           : High@L4
Format settings                          : 4 Ref Frames
Format settings, CABAC                   : No
Format settings, RefFrames               : 4 frames
Codec ID                                 : V_MPEG4/ISO/AVC
Duration                                 : 42 min 21 s
Bit rate                                 : 3 000 kb/s
Width                                    : 1 920 pixels
Height                                   : 1 080 pixels
Display aspect ratio                     : 16:9
Frame rate mode                          : Constant
Frame rate                               : 23.976 (24000/1001) FPS
Color space                              : YUV
Chroma subsampling                       : 4:2:0
Bit depth                                : 8 bits
Scan type                                : Progressive
Bits/(Pixel*Frame)                       : 0.060
Stream size                              : 909 MiB (87%)
Writing library                          : x264 core 148 r2708 86b7198
Encoding settings                        : cabac=0 / ref=4 / deblock=0:-1:-1 / analyse=0x3:0x133 / me=tesa >>
/ subme=11 / psy=1 / psy_rd=1.00:0.15 / mixed_ref=1 / me_range=24 / chroma_me=1 / trellis=2 / 8x8dct=1 >>
/ cqm=0 / deadzone=21,11 / fast_pskip=0 / chroma_qp_offset=-3 / threads=34 / lookahead_threads=8 / >>
sliced_threads=0 / nr=0 / decimate=1 / interlaced=0 / bluray_compat=0 / constrained_intra=0 / >>
bframes=16 / b_pyramid=2 / b_adapt=2 / b_bias=0 / direct=3 / weightb=0 / open_gop=0 / weightp=0 / >>
keyint=240 / keyint_min=24 / scenecut=40 / intra_refresh=0 / rc_lookahead=60 / rc=2pass / mbtree=1 / >>
bitrate=3000 / ratetol=1.0 / qcomp=0.60 / qpmin=0 / qpmax=69 / qpstep=4 / cplxblur=20.0 / qblur=0.5 / >>
vbv_maxrate=25000 / vbv_bufsize=31250 / nal_hrd=none / filler=0 / ip_ratio=1.40 / aq=1:1.00
Default                                  : Yes
Forced                                   : No
Color range                              : Limited
Color primaries                          : BT.709
Transfer characteristics                 : BT.709
Matrix coefficients                      : BT.709

Audio
ID                                       : 2
Format                                   : AC-3
Format/Info                              : Audio Coding 3
Format settings, Endianness              : Big
Codec ID                                 : A_AC3
Duration                                 : 42 min 21 s
Bit rate mode                            : Constant
Bit rate                                 : 448 kb/s
Channel(s)                               : 6 channels
Channel positions                        : Front: L C R, Side: L R, LFE
Sampling rate                            : 48.0 kHz
Frame rate                               : 31.250 FPS (1536 SPF)
Bit depth                                : 16 bits
Compression mode                         : Lossy
Delay relative to video                  : -5 ms
Stream size                              : 136 MiB (13%)
Language                                 : English
Service kind                             : Complete Main
Default                                  : Yes
Forced                                   : No

Text #1
ID                                       : 3
Format                                   : UTF-8
Codec ID                                 : S_TEXT/UTF8
Codec ID/Info                            : UTF-8 Plain Text
Duration                                 : 41 min 57 s
Bit rate                                 : 74 b/s
Count of elements                        : 724
Stream size                              : 22.8 KiB (0%)
Language                                 : Latin
Default                                  : Yes
Forced                                   : No

Text #2
ID                                       : 4
Format                                   : UTF-8
Codec ID                                 : S_TEXT/UTF8
Codec ID/Info                            : UTF-8 Plain Text
Duration                                 : 42 min 15 s
Bit rate                                 : 83 b/s
Count of elements                        : 987
Stream size                              : 25.7 KiB (0%)
Language                                 : English
Default                                  : No
Forced                                   : No



This NFO File was rendered by NFOmation.net

General
Unique ID                                : 188543023437848941470224292570708573048 (0x8DD810C246CFBD >>
1821C0C2F568FFB78)
Complete name                            : C:\Users\Cristian Cabrera\Downloads\Carpeta\The Flash (S04E02) >>
WEB-DL 1080p Subtitulada\The Flash (S04E01).mkv
Format                                   : Matroska
Format version                           : Version 4 / Version 2
File size                                : 1.02 GiB
Duration                                 : 42 min 21 s
Overall bit rate                         : 3 449 kb/s
Movie name                               : The Flash (S04E01) Encode by Invulnever - Pocos Megas HD
Encoded date                             : UTC 2017-10-22 00:57:23
Writing application                      : mkvmerge v8.3.0 ('Over the Horizon') 64bit
Writing library                          : libebml v1.3.1 + libmatroska v1.4.2

Video
ID                                       : 1
Format                                   : AVC
Format/Info                              : Advanced Video Codec
Format profile                           : High@L4
Format settings                          : 4 Ref Frames
Format settings, CABAC                   : No
Format settings, RefFrames               : 4 frames
Codec ID                                 : V_MPEG4/ISO/AVC
Duration                                 : 42 min 21 s
Bit rate                                 : 3 000 kb/s
Width                                    : 1 920 pixels
Height                                   : 1 080 pixels
Display aspect ratio                     : 16:9
Frame rate mode                          : Constant
Frame rate                               : 23.976 (24000/1001) FPS
Color space                              : YUV
Chroma subsampling                       : 4:2:0
Bit depth                                : 8 bits
Scan type                                : Progressive
Bits/(Pixel*Frame)                       : 0.060
Stream size                              : 909 MiB (87%)
Writing library                          : x264 core 148 r2708 86b7198
Encoding settings                        : cabac=0 / ref=4 / deblock=0:-1:-1 / analyse=0x3:0x133 / me=tesa >>
/ subme=11 / psy=1 / psy_rd=1.00:0.15 / mixed_ref=1 / me_range=24 / chroma_me=1 / trellis=2 / 8x8dct=1 >>
/ cqm=0 / deadzone=21,11 / fast_pskip=0 / chroma_qp_offset=-3 / threads=34 / lookahead_threads=8 / >>
sliced_threads=0 / nr=0 / decimate=1 / interlaced=0 / bluray_compat=0 / constrained_intra=0 / >>
bframes=16 / b_pyramid=2 / b_adapt=2 / b_bias=0 / direct=3 / weightb=0 / open_gop=0 / weightp=0 / >>
keyint=240 / keyint_min=24 / scenecut=40 / intra_refresh=0 / rc_lookahead=60 / rc=2pass / mbtree=1 / >>
bitrate=3000 / ratetol=1.0 / qcomp=0.60 / qpmin=0 / qpmax=69 / qpstep=4 / cplxblur=20.0 / qblur=0.5 / >>
vbv_maxrate=25000 / vbv_bufsize=31250 / nal_hrd=none / filler=0 / ip_ratio=1.40 / aq=1:1.00
Default                                  : Yes
Forced                                   : No
Color range                              : Limited
Color primaries                          : BT.709
Transfer characteristics                 : BT.709
Matrix coefficients                      : BT.709

Audio
ID                                       : 2
Format                                   : AC-3
Format/Info                              : Audio Coding 3
Format settings, Endianness              : Big
Codec ID                                 : A_AC3
Duration                                 : 42 min 21 s
Bit rate mode                            : Constant
Bit rate                                 : 448 kb/s
Channel(s)                               : 6 channels
Channel positions                        : Front: L C R, Side: L R, LFE
Sampling rate                            : 48.0 kHz
Frame rate                               : 31.250 FPS (1536 SPF)
Bit depth                                : 16 bits
Compression mode                         : Lossy
Delay relative to video                  : -5 ms
Stream size                              : 136 MiB (13%)
Language                                 : English
Service kind                             : Complete Main
Default                                  : Yes
Forced                                   : No

Text #1
ID                                       : 3
Format                                   : UTF-8
Codec ID                                 : S_TEXT/UTF8
Codec ID/Info                            : UTF-8 Plain Text
Duration                                 : 41 min 57 s
Bit rate                                 : 74 b/s
Count of elements                        : 724
Stream size                              : 22.8 KiB (0%)
Language                                 : Latin
Default                                  : Yes
Forced                                   : No

Text #2
ID                                       : 4
Format                                   : UTF-8
Codec ID                                 : S_TEXT/UTF8
Codec ID/Info                            : UTF-8 Plain Text
Duration                                 : 42 min 15 s
Bit rate                                 : 83 b/s
Count of elements                        : 987
Stream size                              : 25.7 KiB (0%)
Language                                 : English
Default                                  : No
Forced                                   : No



This NFO File was rendered by NFOmation.net


Bookmark and Share

<Mascot>
[ Sitemap ]

aa21