NFOmation.net - Your Ultimate NFO Upload Resource! Viewing NFO file: Valerian_and_the_City_of_a_Thousand_Planets__2017_.txt Valerian_and_the_City_of_a_Thousand_Planets__2017_.txt

General
Unique ID                                : 195381456411358543895966026246075162394 (0x92FD198916CA3C >>
4AA653EF5B2FF9F1A)
Complete name                            : C:\Users\Cristian Cabrera\Downloads\Carpeta\VLELPT72PMHD\Valerian >>
and the City of a Thousand Planets (2017).mkv
Format                                   : Matroska
Format version                           : Version 4 / Version 2
File size                                : 1.93 GiB
Duration                                 : 2 h 17 min
Overall bit rate                         : 2 013 kb/s
Movie name                               : Valerian and the City of a Thousand Planets (2017) Encode >>
by Invulnever - Pocos Megas HD
Encoded date                             : UTC 2017-11-04 16:43:33
Writing application                      : mkvmerge v8.3.0 ('Over the Horizon') 64bit
Writing library                          : libebml v1.3.1 + libmatroska v1.4.2

Video
ID                                       : 1
Format                                   : AVC
Format/Info                              : Advanced Video Codec
Format profile                           : High@L4
Format settings                          : 12 Ref Frames
Format settings, CABAC                   : No
Format settings, RefFrames               : 12 frames
Codec ID                                 : V_MPEG4/ISO/AVC
Duration                                 : 2 h 17 min
Bit rate                                 : 1 500 kb/s
Width                                    : 1 280 pixels
Height                                   : 536 pixels
Display aspect ratio                     : 2.40:1
Frame rate mode                          : Constant
Frame rate                               : 24.000 FPS
Color space                              : YUV
Chroma subsampling                       : 4:2:0
Bit depth                                : 8 bits
Scan type                                : Progressive
Bits/(Pixel*Frame)                       : 0.091
Stream size                              : 1.44 GiB (74%)
Writing library                          : x264 core 148 r2708 86b7198
Encoding settings                        : cabac=0 / ref=12 / deblock=0:-1:-1 / analyse=0x3:0x133 / me=umh >>
/ subme=10 / psy=1 / psy_rd=1.00:0.15 / mixed_ref=1 / me_range=24 / chroma_me=1 / trellis=2 / 8x8dct=1 >>
/ cqm=0 / deadzone=21,11 / fast_pskip=1 / chroma_qp_offset=-3 / threads=17 / lookahead_threads=2 / >>
sliced_threads=0 / nr=0 / decimate=1 / interlaced=0 / bluray_compat=0 / constrained_intra=0 / >>
bframes=8 / b_pyramid=2 / b_adapt=2 / b_bias=0 / direct=3 / weightb=0 / open_gop=0 / weightp=0 / >>
keyint=240 / keyint_min=24 / scenecut=40 / intra_refresh=0 / rc_lookahead=60 / rc=2pass / mbtree=1 / >>
bitrate=1500 / ratetol=1.0 / qcomp=0.60 / qpmin=0 / qpmax=69 / qpstep=4 / cplxblur=20.0 / qblur=0.5 / >>
vbv_maxrate=25000 / vbv_bufsize=31250 / nal_hrd=none / filler=0 / ip_ratio=1.40 / aq=1:1.00
Default                                  : Yes
Forced                                   : No
Color range                              : Limited
Color primaries                          : BT.709
Transfer characteristics                 : BT.709
Matrix coefficients                      : BT.709

Audio #1
ID                                       : 2
Format                                   : AC-3
Format/Info                              : Audio Coding 3
Format settings, Endianness              : Big
Codec ID                                 : A_AC3
Duration                                 : 2 h 17 min
Bit rate mode                            : Constant
Bit rate                                 : 192 kb/s
Channel(s)                               : 2 channels
Channel positions                        : Front: L R
Sampling rate                            : 44.1 kHz
Frame rate                               : 28.711 FPS (1536 SPF)
Bit depth                                : 16 bits
Compression mode                         : Lossy
Delay relative to video                  : -5 ms
Stream size                              : 189 MiB (10%)
Language                                 : Latin
Service kind                             : Complete Main
Default                                  : Yes
Forced                                   : No

Audio #2
ID                                       : 3
Format                                   : AC-3
Format/Info                              : Audio Coding 3
Format settings, Endianness              : Big
Codec ID                                 : A_AC3
Duration                                 : 2 h 17 min
Bit rate mode                            : Constant
Bit rate                                 : 320 kb/s
Channel(s)                               : 6 channels
Channel positions                        : Front: L C R, Side: L R, LFE
Sampling rate                            : 48.0 kHz
Frame rate                               : 31.250 FPS (1536 SPF)
Bit depth                                : 16 bits
Compression mode                         : Lossy
Delay relative to video                  : -5 ms
Stream size                              : 314 MiB (16%)
Language                                 : English
Service kind                             : Complete Main
Default                                  : No
Forced                                   : No

Text #1
ID                                       : 4
Format                                   : UTF-8
Codec ID                                 : S_TEXT/UTF8
Codec ID/Info                            : UTF-8 Plain Text
Duration                                 : 2 h 10 min
Bit rate                                 : 56 b/s
Count of elements                        : 1539
Stream size                              : 53.8 KiB (0%)
Language                                 : Spanish
Default                                  : Yes
Forced                                   : No

Text #2
ID                                       : 5
Format                                   : UTF-8
Codec ID                                 : S_TEXT/UTF8
Codec ID/Info                            : UTF-8 Plain Text
Duration                                 : 6 min 33 s
Bit rate                                 : 2 b/s
Count of elements                        : 6
Stream size                              : 134 Bytes (0%)
Language                                 : English
Default                                  : No
Forced                                   : No

Menu
00:00:00.000                             : en:1
00:08:26.083                             : en:2
00:16:55.042                             : en:3
00:24:21.375                             : en:4
00:28:59.125                             : en:5
00:36:54.375                             : en:6
00:43:20.458                             : en:7
00:50:37.000                             : en:8
00:59:37.583                             : en:9
01:06:37.042                             : en:10
01:13:36.708                             : en:11
01:20:22.667                             : en:12
01:28:10.833                             : en:13
01:35:50.583                             : en:14
01:41:11.625                             : en:15
01:50:35.625                             : en:16
01:58:23.542                             : en:17
02:03:33.250                             : en:18



This NFO File was rendered by NFOmation.net

General
Unique ID                                : 195381456411358543895966026246075162394 (0x92FD198916CA3C >>
4AA653EF5B2FF9F1A)
Complete name                            : C:\Users\Cristian Cabrera\Downloads\Carpeta\VLELPT72PMHD\Valerian >>
and the City of a Thousand Planets (2017).mkv
Format                                   : Matroska
Format version                           : Version 4 / Version 2
File size                                : 1.93 GiB
Duration                                 : 2 h 17 min
Overall bit rate                         : 2 013 kb/s
Movie name                               : Valerian and the City of a Thousand Planets (2017) Encode >>
by Invulnever - Pocos Megas HD
Encoded date                             : UTC 2017-11-04 16:43:33
Writing application                      : mkvmerge v8.3.0 ('Over the Horizon') 64bit
Writing library                          : libebml v1.3.1 + libmatroska v1.4.2

Video
ID                                       : 1
Format                                   : AVC
Format/Info                              : Advanced Video Codec
Format profile                           : High@L4
Format settings                          : 12 Ref Frames
Format settings, CABAC                   : No
Format settings, RefFrames               : 12 frames
Codec ID                                 : V_MPEG4/ISO/AVC
Duration                                 : 2 h 17 min
Bit rate                                 : 1 500 kb/s
Width                                    : 1 280 pixels
Height                                   : 536 pixels
Display aspect ratio                     : 2.40:1
Frame rate mode                          : Constant
Frame rate                               : 24.000 FPS
Color space                              : YUV
Chroma subsampling                       : 4:2:0
Bit depth                                : 8 bits
Scan type                                : Progressive
Bits/(Pixel*Frame)                       : 0.091
Stream size                              : 1.44 GiB (74%)
Writing library                          : x264 core 148 r2708 86b7198
Encoding settings                        : cabac=0 / ref=12 / deblock=0:-1:-1 / analyse=0x3:0x133 / me=umh >>
/ subme=10 / psy=1 / psy_rd=1.00:0.15 / mixed_ref=1 / me_range=24 / chroma_me=1 / trellis=2 / 8x8dct=1 >>
/ cqm=0 / deadzone=21,11 / fast_pskip=1 / chroma_qp_offset=-3 / threads=17 / lookahead_threads=2 / >>
sliced_threads=0 / nr=0 / decimate=1 / interlaced=0 / bluray_compat=0 / constrained_intra=0 / >>
bframes=8 / b_pyramid=2 / b_adapt=2 / b_bias=0 / direct=3 / weightb=0 / open_gop=0 / weightp=0 / >>
keyint=240 / keyint_min=24 / scenecut=40 / intra_refresh=0 / rc_lookahead=60 / rc=2pass / mbtree=1 / >>
bitrate=1500 / ratetol=1.0 / qcomp=0.60 / qpmin=0 / qpmax=69 / qpstep=4 / cplxblur=20.0 / qblur=0.5 / >>
vbv_maxrate=25000 / vbv_bufsize=31250 / nal_hrd=none / filler=0 / ip_ratio=1.40 / aq=1:1.00
Default                                  : Yes
Forced                                   : No
Color range                              : Limited
Color primaries                          : BT.709
Transfer characteristics                 : BT.709
Matrix coefficients                      : BT.709

Audio #1
ID                                       : 2
Format                                   : AC-3
Format/Info                              : Audio Coding 3
Format settings, Endianness              : Big
Codec ID                                 : A_AC3
Duration                                 : 2 h 17 min
Bit rate mode                            : Constant
Bit rate                                 : 192 kb/s
Channel(s)                               : 2 channels
Channel positions                        : Front: L R
Sampling rate                            : 44.1 kHz
Frame rate                               : 28.711 FPS (1536 SPF)
Bit depth                                : 16 bits
Compression mode                         : Lossy
Delay relative to video                  : -5 ms
Stream size                              : 189 MiB (10%)
Language                                 : Latin
Service kind                             : Complete Main
Default                                  : Yes
Forced                                   : No

Audio #2
ID                                       : 3
Format                                   : AC-3
Format/Info                              : Audio Coding 3
Format settings, Endianness              : Big
Codec ID                                 : A_AC3
Duration                                 : 2 h 17 min
Bit rate mode                            : Constant
Bit rate                                 : 320 kb/s
Channel(s)                               : 6 channels
Channel positions                        : Front: L C R, Side: L R, LFE
Sampling rate                            : 48.0 kHz
Frame rate                               : 31.250 FPS (1536 SPF)
Bit depth                                : 16 bits
Compression mode                         : Lossy
Delay relative to video                  : -5 ms
Stream size                              : 314 MiB (16%)
Language                                 : English
Service kind                             : Complete Main
Default                                  : No
Forced                                   : No

Text #1
ID                                       : 4
Format                                   : UTF-8
Codec ID                                 : S_TEXT/UTF8
Codec ID/Info                            : UTF-8 Plain Text
Duration                                 : 2 h 10 min
Bit rate                                 : 56 b/s
Count of elements                        : 1539
Stream size                              : 53.8 KiB (0%)
Language                                 : Spanish
Default                                  : Yes
Forced                                   : No

Text #2
ID                                       : 5
Format                                   : UTF-8
Codec ID                                 : S_TEXT/UTF8
Codec ID/Info                            : UTF-8 Plain Text
Duration                                 : 6 min 33 s
Bit rate                                 : 2 b/s
Count of elements                        : 6
Stream size                              : 134 Bytes (0%)
Language                                 : English
Default                                  : No
Forced                                   : No

Menu
00:00:00.000                             : en:1
00:08:26.083                             : en:2
00:16:55.042                             : en:3
00:24:21.375                             : en:4
00:28:59.125                             : en:5
00:36:54.375                             : en:6
00:43:20.458                             : en:7
00:50:37.000                             : en:8
00:59:37.583                             : en:9
01:06:37.042                             : en:10
01:13:36.708                             : en:11
01:20:22.667                             : en:12
01:28:10.833                             : en:13
01:35:50.583                             : en:14
01:41:11.625                             : en:15
01:50:35.625                             : en:16
01:58:23.542                             : en:17
02:03:33.250                             : en:18



This NFO File was rendered by NFOmation.net


Bookmark and Share

<Mascot>
[ Sitemap ]

aa21