NFOmation.net - Your Ultimate NFO Upload Resource! Viewing NFO file: nfo.txt nfo.txt

Plot:

A small but brave donkey and his animal friends become the unsung heroes of the first Christmas.

Sources - VIDEO: A Friend ....Thanks :P
AUDIO: A Friend ....Thanks :P

Complete name : The.Star.2017.CAM.READNFO.XViD-26k.avi
Format : AVI
Format/Info : Audio Video Interleave
File size : 1.58 GiB
Duration : 1h 16mn
Overall bit rate : 2 931 Kbps
Writing library : VirtualDub build 32839/release

Video
ID : 0
Format : MPEG-4 Visual
Format profile : Advanced Simple@L5
Format settings, BVOP : 2
Format settings, QPel : Yes
Format settings, GMC : No warppoints
Format settings, Matrix : Default (H.263)
Muxing mode : Packed bitstream
Codec ID : XVID
Codec ID/Hint : XviD
Duration : 1h 16mn
Bit rate : 2 794 Kbps
Width : 720 pixels
Height : 352 pixels
Display aspect ratio : 2.045
Frame rate : 23.976 fps
Color space : YUV
Chroma subsampling : 4:2:0
Bit depth : 8 bits
Scan type : Progressive
Compression mode : Lossy
Bits/(Pixel*Frame) : 0.460
Stream size : 1.50 GiB (95%)
Writing library : XviD 67

Audio
ID : 1
Format : MPEG Audio
Format version : Version 1
Format profile : Layer 3
Mode : Joint stereo
Mode extension : MS Stereo
Codec ID : 55
Codec ID/Hint : MP3
Duration : 1h 16mn
Bit rate mode : Constant
Bit rate : 128 Kbps
Channel(s) : 2 channels
Sampling rate : 48.0 KHz
Compression mode : Lossy
Stream size : 70.5 MiB (4%)
Alignment : Split accross interleaves
Interleave, duration : 42 ms (1.00 video frame)

Notes -

Took the source we were passed and went to work resize, denoise and few other tweaks then just remuxed >>
audio.. ENJOY ...

REASON FOR READNFO.. WE ARE PRETTY SURE ITS MISSING A LIL BIT FROM THE END.. NOT SURE HOW MUCH BUT WE >>
FIGURE 1 MIN OR SO...



This NFO File was rendered by NFOmation.net

Plot:

A small but brave donkey and his animal friends become the unsung heroes of the first Christmas.

Sources - VIDEO: A Friend ....Thanks :P
AUDIO: A Friend ....Thanks :P

Complete name : The.Star.2017.CAM.READNFO.XViD-26k.avi
Format : AVI
Format/Info : Audio Video Interleave
File size : 1.58 GiB
Duration : 1h 16mn
Overall bit rate : 2 931 Kbps
Writing library : VirtualDub build 32839/release

Video
ID : 0
Format : MPEG-4 Visual
Format profile : Advanced Simple@L5
Format settings, BVOP : 2
Format settings, QPel : Yes
Format settings, GMC : No warppoints
Format settings, Matrix : Default (H.263)
Muxing mode : Packed bitstream
Codec ID : XVID
Codec ID/Hint : XviD
Duration : 1h 16mn
Bit rate : 2 794 Kbps
Width : 720 pixels
Height : 352 pixels
Display aspect ratio : 2.045
Frame rate : 23.976 fps
Color space : YUV
Chroma subsampling : 4:2:0
Bit depth : 8 bits
Scan type : Progressive
Compression mode : Lossy
Bits/(Pixel*Frame) : 0.460
Stream size : 1.50 GiB (95%)
Writing library : XviD 67

Audio
ID : 1
Format : MPEG Audio
Format version : Version 1
Format profile : Layer 3
Mode : Joint stereo
Mode extension : MS Stereo
Codec ID : 55
Codec ID/Hint : MP3
Duration : 1h 16mn
Bit rate mode : Constant
Bit rate : 128 Kbps
Channel(s) : 2 channels
Sampling rate : 48.0 KHz
Compression mode : Lossy
Stream size : 70.5 MiB (4%)
Alignment : Split accross interleaves
Interleave, duration : 42 ms (1.00 video frame)

Notes -

Took the source we were passed and went to work resize, denoise and few other tweaks then just remuxed >>
audio.. ENJOY ...

REASON FOR READNFO.. WE ARE PRETTY SURE ITS MISSING A LIL BIT FROM THE END.. NOT SURE HOW MUCH BUT WE >>
FIGURE 1 MIN OR SO...



This NFO File was rendered by NFOmation.net


Bookmark and Share

<Mascot>
[ Sitemap ]

aa21