NFOmation.net - Your Ultimate NFO Upload Resource! Viewing NFO file: Daddys.Home.2.2017.HDCAM.XVID.HQ.Hive-CM8.nfo Daddys.Home.2.2017.HDCAM.XVID.HQ.Hive-CM8

https://i.imgur.com/3SplIZP.jpg

Daddys.Home.2.2017.HDCAM.XVID.HQ.Hive-CM8

Thx Hive

CM8 Doing It Right The First Time

Sources:
Video: Latino 720p
Audio: Kingmaker
thx

Notes:
yep we still here, wasnt much to do lately no useable cams anymore, except this one here

Encode:
used highest useable video which was already nice only needed fixing ar,angle and perspective and added >>
sharpness, was complete too
video had 3 spots 15secs each watermarked- blurred it

audio is a nice mic everything is loud and understandable, took cpl hours to lipsync
got very nice
enjoy

Screeners:
Yes we want to have them all if possible, we are collectors, we dont want to release them all.
Don't post public or on any blog its too risky, it has to be done safely and secure in private, and we >>
have proven that we can do it.
Msg us cm8crew@hushmail.com - we will respect your wishes
if you want to share with us in private it will stay private

Video: 720x384 @bitrate 1800 2pass
Audio: English AC3 2.0 Mic
Sample: yes included

http://www.imdb.com/title/tt5657846/

General
Complete name                  : Daddys.Home.2.2017.HDCAM.XVID.HQ.Hive-CM8.avi
Format                         : AVI
Format/Info                    : Audio Video Interleave
File size                      : 1.28 GiB
Duration                       : 1h 28mn
Overall bit rate               : 2 068 Kbps
Writing application            : Nandub v1.0rc2
Writing library                : Nandub build 1853/release

Video
ID                             : 0
Format                         : MPEG-4 Visual
Format profile                 : Advanced Simple@L5
Format settings, BVOP          : 2
Format settings, QPel          : Yes
Format settings, GMC           : No warppoints
Format settings, Matrix        : Default (H.263)
Muxing mode                    : Packed bitstream
Codec ID                       : XVID
Codec ID/Hint                  : XviD
Duration                       : 1h 28mn
Bit rate                       : 1 800 Kbps
Width                          : 720 pixels
Height                         : 384 pixels
Display aspect ratio           : 1.85:1
Frame rate                     : 29.970 fps
Color space                    : YUV
Chroma subsampling             : 4:2:0
Bit depth                      : 8 bits
Scan type                      : Progressive
Compression mode               : Lossy
Bits/(Pixel*Frame)             : 0.217
Stream size                    : 1.12 GiB (87%)
Writing library                : XviD 1.2.1 (UTC 2008-12-04)

Audio
ID                             : 1
Format                         : AC-3
Format/Info                    : Audio Coding 3
Mode extension                 : CM (complete main)
Format settings, Endianness    : Big
Codec ID                       : 2000
Duration                       : 1h 28mn
Bit rate mode                  : Constant
Bit rate                       : 256 Kbps
Channel(s)                     : 2 channels
Channel positions              : Front: L R
Sampling rate                  : 48.0 KHz
Bit depth                      : 16 bits
Compression mode               : Lossy
Stream size                    : 163 MiB (12%)
Alignment                      : Split accross interleaves
Interleave, duration           : 33 ms (1.00 video frame)
Interleave, preload duration   : 500 ms

Screens

https://i.imgur.com/ucJznhV.png
https://i.imgur.com/Kx2FTPw.png
https://i.imgur.com/dua751N.png
https://i.imgur.com/ohv82Gq.png
https://i.imgur.com/ih5W06z.png
https://i.imgur.com/eKsa7gI.png
https://i.imgur.com/guHsGvx.png

Plot

Having finally gotten used to each other's existence, Brad and Dusty must now deal with their >>
intrusive fathers during the holidays.

Cast overview, first billed only:
Will Ferrell                ...        Brad
Mark Wahlberg                ...        Dusty
Mel Gibson                ...        Kurt
John Lithgow                ...        Don
Linda Cardellini        ...        Sara
Alessandra Ambrosio        ...        Karen
Owen Vaccaro                ...        Dylan (as Owen Wilder Vaccaro)
Scarlett Estevez        ...        Megan
Didi Costine                ...        Adrianna
Connor Wise                ...        Griffy
Daphne Wise                ...        Griffy
Dylan Wise                ...        Griffy
John Cena                ...        Roger
Andrea Anders                ...        Principal Hayes
Kyle Tristan                ...        Christmas Pageant Kid (as Kyle Tristan Wakefield)

COME FIND US WE DONT BITE


This NFO File was rendered by NFOmation.net

https://i.imgur.com/3SplIZP.jpg

Daddys.Home.2.2017.HDCAM.XVID.HQ.Hive-CM8

Thx Hive

CM8 Doing It Right The First Time

Sources:
Video: Latino 720p
Audio: Kingmaker
thx

Notes:
yep we still here, wasnt much to do lately no useable cams anymore, except this one here

Encode:
used highest useable video which was already nice only needed fixing ar,angle and perspective and added >>
sharpness, was complete too
video had 3 spots 15secs each watermarked- blurred it

audio is a nice mic everything is loud and understandable, took cpl hours to lipsync
got very nice
enjoy

Screeners:
Yes we want to have them all if possible, we are collectors, we dont want to release them all.
Don't post public or on any blog its too risky, it has to be done safely and secure in private, and we >>
have proven that we can do it.
Msg us cm8crew@hushmail.com - we will respect your wishes
if you want to share with us in private it will stay private

Video: 720x384 @bitrate 1800 2pass
Audio: English AC3 2.0 Mic
Sample: yes included

http://www.imdb.com/title/tt5657846/

General
Complete name                  : Daddys.Home.2.2017.HDCAM.XVID.HQ.Hive-CM8.avi
Format                         : AVI
Format/Info                    : Audio Video Interleave
File size                      : 1.28 GiB
Duration                       : 1h 28mn
Overall bit rate               : 2 068 Kbps
Writing application            : Nandub v1.0rc2
Writing library                : Nandub build 1853/release

Video
ID                             : 0
Format                         : MPEG-4 Visual
Format profile                 : Advanced Simple@L5
Format settings, BVOP          : 2
Format settings, QPel          : Yes
Format settings, GMC           : No warppoints
Format settings, Matrix        : Default (H.263)
Muxing mode                    : Packed bitstream
Codec ID                       : XVID
Codec ID/Hint                  : XviD
Duration                       : 1h 28mn
Bit rate                       : 1 800 Kbps
Width                          : 720 pixels
Height                         : 384 pixels
Display aspect ratio           : 1.85:1
Frame rate                     : 29.970 fps
Color space                    : YUV
Chroma subsampling             : 4:2:0
Bit depth                      : 8 bits
Scan type                      : Progressive
Compression mode               : Lossy
Bits/(Pixel*Frame)             : 0.217
Stream size                    : 1.12 GiB (87%)
Writing library                : XviD 1.2.1 (UTC 2008-12-04)

Audio
ID                             : 1
Format                         : AC-3
Format/Info                    : Audio Coding 3
Mode extension                 : CM (complete main)
Format settings, Endianness    : Big
Codec ID                       : 2000
Duration                       : 1h 28mn
Bit rate mode                  : Constant
Bit rate                       : 256 Kbps
Channel(s)                     : 2 channels
Channel positions              : Front: L R
Sampling rate                  : 48.0 KHz
Bit depth                      : 16 bits
Compression mode               : Lossy
Stream size                    : 163 MiB (12%)
Alignment                      : Split accross interleaves
Interleave, duration           : 33 ms (1.00 video frame)
Interleave, preload duration   : 500 ms

Screens

https://i.imgur.com/ucJznhV.png
https://i.imgur.com/Kx2FTPw.png
https://i.imgur.com/dua751N.png
https://i.imgur.com/ohv82Gq.png
https://i.imgur.com/ih5W06z.png
https://i.imgur.com/eKsa7gI.png
https://i.imgur.com/guHsGvx.png

Plot

Having finally gotten used to each other's existence, Brad and Dusty must now deal with their >>
intrusive fathers during the holidays.

Cast overview, first billed only:
Will Ferrell                ...        Brad
Mark Wahlberg                ...        Dusty
Mel Gibson                ...        Kurt
John Lithgow                ...        Don
Linda Cardellini        ...        Sara
Alessandra Ambrosio        ...        Karen
Owen Vaccaro                ...        Dylan (as Owen Wilder Vaccaro)
Scarlett Estevez        ...        Megan
Didi Costine                ...        Adrianna
Connor Wise                ...        Griffy
Daphne Wise                ...        Griffy
Dylan Wise                ...        Griffy
John Cena                ...        Roger
Andrea Anders                ...        Principal Hayes
Kyle Tristan                ...        Christmas Pageant Kid (as Kyle Tristan Wakefield)

COME FIND US WE DONT BITE


This NFO File was rendered by NFOmation.net


Bookmark and Share

<Mascot>
[ Sitemap ]

aa21