NFOmation.net - Your Ultimate NFO Upload Resource! Viewing NFO file: NFO.NFO NFO.NFO

                                                                     ..
                                .--~*teu.           .ue~~%u.      < .z@8"`
                               dF     988Nx       .d88   z88i      !@88E
                              d888b   `8888>     x888E  *8888      '888E   u
                              ?8888>  98888F    :8888E   ^""        888E u@8NL
                               "**"  x88888~    98888E.=tWc.        888E`"88*"
                                    d8888*`     98888N  '888N       888E .dN.
                                  z8**"`   :    98888E   8888E      888E~8888
                .      .        :?.....  ..F    '8888E   8888E      888E '888&     .      .
              .@8c   .@8c      <""888888888~     ?888E   8888"      888E  9888.  .@8c   .@8c
             '%888" '%888"     8:  "888888*       "88&   888"     '"888*" 4888" '%888" '%888"
               ^*     ^*       ""    "**"`          ""==*""          ""    ""     ^*     ^*

                                 .m//oooo/:.```h``y +/```.:/+++/oyo
                                `:yNy+-``       h` s +/       ``-/yds:`
                              -sdy/.            h` s +/            `:sho-
                            :yh+.               h` o +/               `/yy-
                          -yh/`                 h` + +/                 `-yy.
                        `oh/........```         h` / +/           ``.....``:h+`
                       .hNhyyyyysssoo++/-`      h` / +/      `.-:/+oooossssoomy.
                      -mmdyyso+++++++o+++o/-`   h` : +/   `.:+/++++/////++oyyhNd-
                     -myoso++/:::::-.....-/+/-  h` - +/  .:+/-.....-:::::/++ossdm.
                    .ms-ysossyhyyyyhyyso:.``:+/`o+ .`y-`/o:` .:+syhhhhhhhyssooh/hd`
                    yh-hshysshhdmmddhysyhy+-` :s:+o.y:-s/` .+yhyyhdmmmmmddhyyhsh/ms
                   :N.yshohNMMMNMMMMMMMmyohy+` `y//h:-h. `/yhyhmMMMMMMNMMMMMdshyy/N-
                   hs:om+NMMMMMMMNMMMMMMMNsyh+` `d.``d- `+yhyNMMMMMMNNMMMMMMMMsdo/hs
                  `N-/yomMMMMMMMMMNNMMMMMMM+hs+  os +y  /omoMMMMMMMNMMMMMMMMMMN+d//m
                  -N :d/MMMMMMMMMMMMNMMMMMMm+do  /h oo  +ysmMMMMMNMMMMMMMMMMMMM+N/.N.
                  :m :d+MMMMMMMMMMMMMMNMMMMhsy+``s+ :h``/ohhMMMNMMMMMMMMMMMMMMM+N:`N.
                  -N :h+MMMMMMMMMMMMMMMMNMmodo--/h`. y+--ohsmNNMMMMMMMMMMMMMMMM+m:`N.
                  `N..ssdMMMMMMMMMMMMMMMNhsho/:+y` / `so/:oyyhNMMMMMMMMMMMMMMMNoy--m`
                   h/ +moMMMMMMMMMMMMMMmsyso++so`  o   +s++oshymMMMMMMMMMMMMMMydo`+y
                   /d :homMMMMMMMMMMMmyyyooosy:   .o.`  -ssoosyyymMMMMMMMMMMMN+d: d-
                    d/ +m+mNMMMMMMNdyyysssss/`    :s/.    :ysssoyyyhNMMMMMMMN+do`+y
                    .d-.ohshNNNNdyyyysyhsy+-`  ```+s+:`  ```:shsyyyhyyhNNNNd+hy..d.
                    .+h..+dhyyhodyyydyhy/.--` ..`.yss+``-.`. .+ohydhhyhshyyyho:.h:
                     ./h- ++yydsmdmhh+/+..--  -...yyd+  `.....+--/sdmddydhy+:.:h:
                    `..:hoo//:/.-:.:o+/++:-:- .--:+/s+:-...:-:++/+:--:-`/::+ohd..-`
                        `smhsooososooo+++/::.--.`   `  .::-:///+++sosoosssyhmo`
                          :dmdmdhyysyoso+o/::`      /  `.--/+ooosssyyhhddmNh-
                           `/dMMmmhdyyyss/-         +     -:-/syshyddmNMMh:
                             `:yNMNNmho/.           +      `-:::shmNMMNy-
                                ./dh/.`             +         .::/omy/`
                        ./o-      `++               +           `.y/         -o/.
                   `-/+o+/d/+`      /y:/oy:     .///y///.     /yooo.`      `o/h/+++/.
               `-/+o+//+::d`.+-   .sooooooh-  `o/:/:+:/:/+`  :hoooo+os`   -s. h:////+o+/-`
           `-/+o+/+/:/+:/+y/ `+:  `hsooooooh. o-/hoyhyoh/:o -hoooooosy`  /o` /y+/:+/:///+o+:-`
         -so+++:/+/://:/+:/d. `//  -doooooosy`h-oNyMMMyNo:h.yoooooood.  ++` `d/:+/://:/+::+++oo.
         d+://://:/+/://:/+os  `sosdNdoooooosy+/:yhhdhhy:/+yooooooodNdsss`  so+/://://:/+/://:+y
        .h///://:///://://:/y+ :NMMMMMhooooooss////+s+//+/ssoooooodMMMMMN/ +y/://://:///://://:h
        `d+/:+/://:/+/://://:y/`mMMMMMNyooooooy+`-:/+/:-`oyoooooohMMMMMMN.:y///://:///://://:/+h
         y////://://:///://:/+h::mMMMmhysooooooy/       +yooooooyyhmMMMm:-h+/://:///://://:////o
         -y/:/+/://://:///://:/h:.+:s: `ysooooooy      `hooooooys  /y/+.-h/://://:///://://::/y.
          o+//:///://://:/+/:///y:  `s` `yss+/-.`  .-://+syyyoss` .y`  :y///://:/+/://://:///++
          `y+:///://://:///://:/+y/  .o  `sh    ``.://+osyhNN--` `y.  /y+/://:/+/://://:///:+s`
           .y+/:///:+/://:/+/://:/so` //  +d-///////++++oydNd    +/ `oy/://:/+/://://:/+/:/+o`
            .s///:/+/://://:/+/:+/:+s-`s` sh-:oy:-----:+o--yh   .y`-so://:/+::+/://:/+::///o`
             .so:/+::+/://:/+:/+/:///o+y/ /s:mdo       .md-s/   +y+o///:/+:/+/://:/+:/+/:+o`
              `+s+:/+::+/://:/+::+//+ooo.  `:yy+       /yy:`    -ooo+//+:/+/://:/+:/+/:+o/
                -so+:/+/:+/:/+/+o+//-`       `+s-`o:`-/s+          `-//+o+/+/:/+:/+::+++.
                  :oso//+/+so//-`              `-:::::-`                `-/+os//+//+o+:
                    ./os+/-`                                                 `:/+s+:.

http://www.imdb.com/title/tt4468740/

Plot:

Paddington, now happily settled with the Brown family and a popular member of the local community, picks >>
up a series of odd jobs to buy the perfect present for his Aunt Lucy's 100th birthday, only for the gift >>
to be stolen.

Sources - VIDEO: 1080p A Friend ....Thanks :P
          AUDIO: A Friend ....Thanks :P

Complete name               : Paddington.2.2017.TS.XViD-26k.avi
Format                      : AVI
Format/Info                 : Audio Video Interleave
File size                   : 1.38 GiB
Duration                    : 1h 36mn
Overall bit rate            : 2 048 Kbps
Writing library             : VirtualDub build 32839/release

Video
ID                          : 0
Format                      : MPEG-4 Visual
Format profile              : Advanced Simple@L5
Format settings, BVOP       : 2
Format settings, QPel       : Yes
Format settings, GMC        : No warppoints
Format settings, Matrix     : Default (H.263)
Muxing mode                 : Packed bitstream
Codec ID                    : XVID
Codec ID/Hint               : XviD
Duration                    : 1h 36mn
Bit rate                    : 1 909 Kbps
Width                       : 720 pixels
Height                      : 272 pixels
Display aspect ratio        : 2.647
Frame rate                  : 30.000 fps
Color space                 : YUV
Chroma subsampling          : 4:2:0
Bit depth                   : 8 bits
Scan type                   : Progressive
Compression mode            : Lossy
Bits/(Pixel*Frame)          : 0.325
Stream size                 : 1.28 GiB (93%)
Writing library             : XviD 67

Audio
ID                          : 1
Format                      : MPEG Audio
Format version              : Version 1
Format profile              : Layer 3
Mode                        : Joint stereo
Mode extension              : MS Stereo
Codec ID                    : 55
Codec ID/Hint               : MP3
Duration                    : 1h 36mn
Bit rate mode               : Constant
Bit rate                    : 128 Kbps
Channel(s)                  : 2 channels
Sampling rate               : 44.1 KHz
Compression mode            : Lossy
Delay relative to video     : 1s 250ms
Stream size                 : 88.2 MiB (6%)
Alignment                   : Split accross interleaves
Interleave, duration        : 33 ms (1.00 video frame)
Writing library             : LAME3.99r
Encoding settings           : -m j -V 4 -q 2 -lowpass 17 -b 128

Notes -

Took the source we were passed and went to work resize, denoise and few other tweaks then just synced >>
up the LiNE we got passed .. ENJOY ...

Screens:

https://imgur.com/iMUrYlx.jpg
https://imgur.com/AGp8uMe.jpg
https://imgur.com/czxhtQP.jpg
https://imgur.com/qzzOmWO.jpg
https://imgur.com/YkCEEEY.jpg
https://imgur.com/P0gKnO2.jpg

Greetz:

To those that deserve it. You know who you are..

To all the people who have helped me  you know who you are

WE ARE CURRENTLY LOOKING FOR NEW VIDEO AND AUDIO PROVIDERS...

Anything to offer email us @: 26k@tuta.io

https://66.media.tumblr.com/41438753a1dd8e0e30b53aacd4f87293/tumblr_n7bnnx05t71qeablwo1_500.gif


This NFO File was rendered by NFOmation.net

                                                                     ..
                                .--~*teu.           .ue~~%u.      < .z@8"`
                               dF     988Nx       .d88   z88i      !@88E
                              d888b   `8888>     x888E  *8888      '888E   u
                              ?8888>  98888F    :8888E   ^""        888E u@8NL
                               "**"  x88888~    98888E.=tWc.        888E`"88*"
                                    d8888*`     98888N  '888N       888E .dN.
                                  z8**"`   :    98888E   8888E      888E~8888
                .      .        :?.....  ..F    '8888E   8888E      888E '888&     .      .
              .@8c   .@8c      <""888888888~     ?888E   8888"      888E  9888.  .@8c   .@8c
             '%888" '%888"     8:  "888888*       "88&   888"     '"888*" 4888" '%888" '%888"
               ^*     ^*       ""    "**"`          ""==*""          ""    ""     ^*     ^*

                                 .m//oooo/:.```h``y +/```.:/+++/oyo
                                `:yNy+-``       h` s +/       ``-/yds:`
                              -sdy/.            h` s +/            `:sho-
                            :yh+.               h` o +/               `/yy-
                          -yh/`                 h` + +/                 `-yy.
                        `oh/........```         h` / +/           ``.....``:h+`
                       .hNhyyyyysssoo++/-`      h` / +/      `.-:/+oooossssoomy.
                      -mmdyyso+++++++o+++o/-`   h` : +/   `.:+/++++/////++oyyhNd-
                     -myoso++/:::::-.....-/+/-  h` - +/  .:+/-.....-:::::/++ossdm.
                    .ms-ysossyhyyyyhyyso:.``:+/`o+ .`y-`/o:` .:+syhhhhhhhyssooh/hd`
                    yh-hshysshhdmmddhysyhy+-` :s:+o.y:-s/` .+yhyyhdmmmmmddhyyhsh/ms
                   :N.yshohNMMMNMMMMMMMmyohy+` `y//h:-h. `/yhyhmMMMMMMNMMMMMdshyy/N-
                   hs:om+NMMMMMMMNMMMMMMMNsyh+` `d.``d- `+yhyNMMMMMMNNMMMMMMMMsdo/hs
                  `N-/yomMMMMMMMMMNNMMMMMMM+hs+  os +y  /omoMMMMMMMNMMMMMMMMMMN+d//m
                  -N :d/MMMMMMMMMMMMNMMMMMMm+do  /h oo  +ysmMMMMMNMMMMMMMMMMMMM+N/.N.
                  :m :d+MMMMMMMMMMMMMMNMMMMhsy+``s+ :h``/ohhMMMNMMMMMMMMMMMMMMM+N:`N.
                  -N :h+MMMMMMMMMMMMMMMMNMmodo--/h`. y+--ohsmNNMMMMMMMMMMMMMMMM+m:`N.
                  `N..ssdMMMMMMMMMMMMMMMNhsho/:+y` / `so/:oyyhNMMMMMMMMMMMMMMMNoy--m`
                   h/ +moMMMMMMMMMMMMMMmsyso++so`  o   +s++oshymMMMMMMMMMMMMMMydo`+y
                   /d :homMMMMMMMMMMMmyyyooosy:   .o.`  -ssoosyyymMMMMMMMMMMMN+d: d-
                    d/ +m+mNMMMMMMNdyyysssss/`    :s/.    :ysssoyyyhNMMMMMMMN+do`+y
                    .d-.ohshNNNNdyyyysyhsy+-`  ```+s+:`  ```:shsyyyhyyhNNNNd+hy..d.
                    .+h..+dhyyhodyyydyhy/.--` ..`.yss+``-.`. .+ohydhhyhshyyyho:.h:
                     ./h- ++yydsmdmhh+/+..--  -...yyd+  `.....+--/sdmddydhy+:.:h:
                    `..:hoo//:/.-:.:o+/++:-:- .--:+/s+:-...:-:++/+:--:-`/::+ohd..-`
                        `smhsooososooo+++/::.--.`   `  .::-:///+++sosoosssyhmo`
                          :dmdmdhyysyoso+o/::`      /  `.--/+ooosssyyhhddmNh-
                           `/dMMmmhdyyyss/-         +     -:-/syshyddmNMMh:
                             `:yNMNNmho/.           +      `-:::shmNMMNy-
                                ./dh/.`             +         .::/omy/`
                        ./o-      `++               +           `.y/         -o/.
                   `-/+o+/d/+`      /y:/oy:     .///y///.     /yooo.`      `o/h/+++/.
               `-/+o+//+::d`.+-   .sooooooh-  `o/:/:+:/:/+`  :hoooo+os`   -s. h:////+o+/-`
           `-/+o+/+/:/+:/+y/ `+:  `hsooooooh. o-/hoyhyoh/:o -hoooooosy`  /o` /y+/:+/:///+o+:-`
         -so+++:/+/://:/+:/d. `//  -doooooosy`h-oNyMMMyNo:h.yoooooood.  ++` `d/:+/://:/+::+++oo.
         d+://://:/+/://:/+os  `sosdNdoooooosy+/:yhhdhhy:/+yooooooodNdsss`  so+/://://:/+/://:+y
        .h///://:///://://:/y+ :NMMMMMhooooooss////+s+//+/ssoooooodMMMMMN/ +y/://://:///://://:h
        `d+/:+/://:/+/://://:y/`mMMMMMNyooooooy+`-:/+/:-`oyoooooohMMMMMMN.:y///://:///://://:/+h
         y////://://:///://:/+h::mMMMmhysooooooy/       +yooooooyyhmMMMm:-h+/://:///://://:////o
         -y/:/+/://://:///://:/h:.+:s: `ysooooooy      `hooooooys  /y/+.-h/://://:///://://::/y.
          o+//:///://://:/+/:///y:  `s` `yss+/-.`  .-://+syyyoss` .y`  :y///://:/+/://://:///++
          `y+:///://://:///://:/+y/  .o  `sh    ``.://+osyhNN--` `y.  /y+/://:/+/://://:///:+s`
           .y+/:///:+/://:/+/://:/so` //  +d-///////++++oydNd    +/ `oy/://:/+/://://:/+/:/+o`
            .s///:/+/://://:/+/:+/:+s-`s` sh-:oy:-----:+o--yh   .y`-so://:/+::+/://:/+::///o`
             .so:/+::+/://:/+:/+/:///o+y/ /s:mdo       .md-s/   +y+o///:/+:/+/://:/+:/+/:+o`
              `+s+:/+::+/://:/+::+//+ooo.  `:yy+       /yy:`    -ooo+//+:/+/://:/+:/+/:+o/
                -so+:/+/:+/:/+/+o+//-`       `+s-`o:`-/s+          `-//+o+/+/:/+:/+::+++.
                  :oso//+/+so//-`              `-:::::-`                `-/+os//+//+o+:
                    ./os+/-`                                                 `:/+s+:.

http://www.imdb.com/title/tt4468740/

Plot:

Paddington, now happily settled with the Brown family and a popular member of the local community, picks >>
up a series of odd jobs to buy the perfect present for his Aunt Lucy's 100th birthday, only for the gift >>
to be stolen.

Sources - VIDEO: 1080p A Friend ....Thanks :P
          AUDIO: A Friend ....Thanks :P

Complete name               : Paddington.2.2017.TS.XViD-26k.avi
Format                      : AVI
Format/Info                 : Audio Video Interleave
File size                   : 1.38 GiB
Duration                    : 1h 36mn
Overall bit rate            : 2 048 Kbps
Writing library             : VirtualDub build 32839/release

Video
ID                          : 0
Format                      : MPEG-4 Visual
Format profile              : Advanced Simple@L5
Format settings, BVOP       : 2
Format settings, QPel       : Yes
Format settings, GMC        : No warppoints
Format settings, Matrix     : Default (H.263)
Muxing mode                 : Packed bitstream
Codec ID                    : XVID
Codec ID/Hint               : XviD
Duration                    : 1h 36mn
Bit rate                    : 1 909 Kbps
Width                       : 720 pixels
Height                      : 272 pixels
Display aspect ratio        : 2.647
Frame rate                  : 30.000 fps
Color space                 : YUV
Chroma subsampling          : 4:2:0
Bit depth                   : 8 bits
Scan type                   : Progressive
Compression mode            : Lossy
Bits/(Pixel*Frame)          : 0.325
Stream size                 : 1.28 GiB (93%)
Writing library             : XviD 67

Audio
ID                          : 1
Format                      : MPEG Audio
Format version              : Version 1
Format profile              : Layer 3
Mode                        : Joint stereo
Mode extension              : MS Stereo
Codec ID                    : 55
Codec ID/Hint               : MP3
Duration                    : 1h 36mn
Bit rate mode               : Constant
Bit rate                    : 128 Kbps
Channel(s)                  : 2 channels
Sampling rate               : 44.1 KHz
Compression mode            : Lossy
Delay relative to video     : 1s 250ms
Stream size                 : 88.2 MiB (6%)
Alignment                   : Split accross interleaves
Interleave, duration        : 33 ms (1.00 video frame)
Writing library             : LAME3.99r
Encoding settings           : -m j -V 4 -q 2 -lowpass 17 -b 128

Notes -

Took the source we were passed and went to work resize, denoise and few other tweaks then just synced >>
up the LiNE we got passed .. ENJOY ...

Screens:

https://imgur.com/iMUrYlx.jpg
https://imgur.com/AGp8uMe.jpg
https://imgur.com/czxhtQP.jpg
https://imgur.com/qzzOmWO.jpg
https://imgur.com/YkCEEEY.jpg
https://imgur.com/P0gKnO2.jpg

Greetz:

To those that deserve it. You know who you are..

To all the people who have helped me  you know who you are

WE ARE CURRENTLY LOOKING FOR NEW VIDEO AND AUDIO PROVIDERS...

Anything to offer email us @: 26k@tuta.io

https://66.media.tumblr.com/41438753a1dd8e0e30b53aacd4f87293/tumblr_n7bnnx05t71qeablwo1_500.gif


This NFO File was rendered by NFOmation.net


Bookmark and Share

<Mascot>
[ Sitemap ]

aa21