NFOmation.net - Your Ultimate NFO Upload Resource! Viewing NFO file: Star.Wars.The.Last.Jedi.2017.CAM.NEW.SOURCES.XViD-26k.nfo Star.Wars.The.Last.Jedi.2017.CAM.NEW.SOURCES.XViD-26k

http://www.imdb.com/title/tt2527336/

Plot:

Rey develops her newly discovered abilities with the guidance of Luke Skywalker, who is unsettled by >>
the strength of her powers. Meanwhile, the Resistance prepares to do battle with the First Order.

Sources - VIDEO: 720p ChiSub ....Thanks :P
AUDIO: 720p ChiSub ....Thanks :P

Complete name : Star.Wars.The.Last.Jedi.2017.CAM.NEW.SOURCES.XViD-26k.avi
Format : AVI
Format/Info : Audio Video Interleave
File size : 1.65 GiB
Duration : 2h 23mn
Overall bit rate : 1 648 Kbps
Writing library : VirtualDub build 32839/release

Video
ID : 0
Format : MPEG-4 Visual
Format profile : Advanced Simple@L5
Format settings, BVOP : 2
Format settings, QPel : Yes
Format settings, GMC : No warppoints
Format settings, Matrix : Default (H.263)
Muxing mode : Packed bitstream
Codec ID : XVID
Codec ID/Hint : XviD
Duration : 2h 23mn
Bit rate : 1 508 Kbps
Width : 720 pixels
Height : 288 pixels
Display aspect ratio : 2.500
Frame rate : 29.970 fps
Color space : YUV
Chroma subsampling : 4:2:0
Bit depth : 8 bits
Scan type : Progressive
Compression mode : Lossy
Bits/(Pixel*Frame) : 0.243
Stream size : 1.51 GiB (92%)
Writing library : XviD 67

Audio
ID : 1
Format : MPEG Audio
Format version : Version 1
Format profile : Layer 3
Mode : Joint stereo
Mode extension : MS Stereo
Codec ID : 55
Codec ID/Hint : MP3
Duration : 2h 23mn
Bit rate mode : Constant
Bit rate : 128 Kbps
Channel(s) : 2 channels
Sampling rate : 48.0 KHz
Compression mode : Lossy
Stream size : 131 MiB (8%)
Alignment : Split accross interleaves
Interleave, duration : 33 ms (1.00 video frame)
Writing library : LAME3.99r
Encoding settings : -m j -V 4 -q 2 -lowpass 17 -b 128

Notes -

Took the source we were passed and went to work perspectives, crop (chairs and chisubs) , resize, denoise >>
and few other tweaks then just muxed the audio back to it.. ENJOY ...

BTW THIS IS A CHISUB SOURCE THAT SUMBODY TAGGED AS KORSUBS.. LEARN THE DIFFERENCE IN THE 2 THEY ARE VERY >>
DIFFERENT

WE WERE WRONG ON LAST VERSION OF THIS.. BUT NOW YOU WONT GET NO BETTER THAN THIS TIL WEB-DL OR DVDSCR


This NFO File was rendered by NFOmation.net

http://www.imdb.com/title/tt2527336/

Plot:

Rey develops her newly discovered abilities with the guidance of Luke Skywalker, who is unsettled by >>
the strength of her powers. Meanwhile, the Resistance prepares to do battle with the First Order.

Sources - VIDEO: 720p ChiSub ....Thanks :P
AUDIO: 720p ChiSub ....Thanks :P

Complete name : Star.Wars.The.Last.Jedi.2017.CAM.NEW.SOURCES.XViD-26k.avi
Format : AVI
Format/Info : Audio Video Interleave
File size : 1.65 GiB
Duration : 2h 23mn
Overall bit rate : 1 648 Kbps
Writing library : VirtualDub build 32839/release

Video
ID : 0
Format : MPEG-4 Visual
Format profile : Advanced Simple@L5
Format settings, BVOP : 2
Format settings, QPel : Yes
Format settings, GMC : No warppoints
Format settings, Matrix : Default (H.263)
Muxing mode : Packed bitstream
Codec ID : XVID
Codec ID/Hint : XviD
Duration : 2h 23mn
Bit rate : 1 508 Kbps
Width : 720 pixels
Height : 288 pixels
Display aspect ratio : 2.500
Frame rate : 29.970 fps
Color space : YUV
Chroma subsampling : 4:2:0
Bit depth : 8 bits
Scan type : Progressive
Compression mode : Lossy
Bits/(Pixel*Frame) : 0.243
Stream size : 1.51 GiB (92%)
Writing library : XviD 67

Audio
ID : 1
Format : MPEG Audio
Format version : Version 1
Format profile : Layer 3
Mode : Joint stereo
Mode extension : MS Stereo
Codec ID : 55
Codec ID/Hint : MP3
Duration : 2h 23mn
Bit rate mode : Constant
Bit rate : 128 Kbps
Channel(s) : 2 channels
Sampling rate : 48.0 KHz
Compression mode : Lossy
Stream size : 131 MiB (8%)
Alignment : Split accross interleaves
Interleave, duration : 33 ms (1.00 video frame)
Writing library : LAME3.99r
Encoding settings : -m j -V 4 -q 2 -lowpass 17 -b 128

Notes -

Took the source we were passed and went to work perspectives, crop (chairs and chisubs) , resize, denoise >>
and few other tweaks then just muxed the audio back to it.. ENJOY ...

BTW THIS IS A CHISUB SOURCE THAT SUMBODY TAGGED AS KORSUBS.. LEARN THE DIFFERENCE IN THE 2 THEY ARE VERY >>
DIFFERENT

WE WERE WRONG ON LAST VERSION OF THIS.. BUT NOW YOU WONT GET NO BETTER THAN THIS TIL WEB-DL OR DVDSCR


This NFO File was rendered by NFOmation.net


Bookmark and Share

<Mascot>
[ Sitemap ]

aa21