NFOmation.net - Your Ultimate NFO Upload Resource! Viewing NFO file: NFO.txt NFO.txt


I,Tonya.2017.DVDScr.XVID.HQ.Hive-CM8

Thx Hive

CM8 Doing It Right The First Time

Source: A cool dude on the street
thx

Notes:
what a nice release after Christmas. Merry Christmas to everyone, from me and TiTAN
Don┤t forget watching a Screener is not like the real thing, you should still all go to the cinema and >>
support the Producers. We are especially sharing this for the people who cant visit the cinema due to >>
illness, or because it is a limited release that doesn't make it to their country. So those people also >>
can experience some award nominated movies..Enjoy

Encode:
quality was nice, not much to do

Screeners:

We are still missing downsizing, hostiles, and phantom thread. anyone want to share them for the >>
collection? Yes we want to have them all if possible, we are collectors, we don't want to release them >>
all. There will be no star wars from us, sorry wont happen
Don't post any info on public or on any blogs, its too risky. It has to be done safely and secure in >>
private, and we have proven that we can do it.

Msg us at cm8crew@hushmail.com - we will respect your wishes

if you want to share with us in private it will stay private

Video: 720x304 @bitrate 1500 2pass
Audio: English Stereo
Sample: yes included

http://www.imdb.com/title/tt5580036/

General
Complete name                  : I,Tonya.2017.DVDScr.XVID.HQ.Hive-CM8.avi
Format                         : AVI
Format/Info                    : Audio Video Interleave
File size                      : 1.48 GiB
Duration                       : 1h 59mn
Overall bit rate               : 1 767 Kbps
Writing application            : Nandub v1.0rc2
Writing library                : Nandub build 1853/release

Video
ID                             : 0
Format                         : MPEG-4 Visual
Format profile                 : Advanced Simple@L5
Format settings, BVOP          : 2
Format settings, QPel          : Yes
Format settings, GMC           : No warppoints
Format settings, Matrix        : Default (H.263)
Muxing mode                    : Packed bitstream
Codec ID                       : XVID
Codec ID/Hint                  : XviD
Duration                       : 1h 59mn
Bit rate                       : 1 499 Kbps
Width                          : 720 pixels
Height                         : 304 pixels
Display aspect ratio           : 2.35:1
Frame rate                     : 30.000 fps
Color space                    : YUV
Chroma subsampling             : 4:2:0
Bit depth                      : 8 bits
Scan type                      : Progressive
Compression mode               : Lossy
Bits/(Pixel*Frame)             : 0.228
Stream size                    : 1.25 GiB (85%)
Writing library                : XviD 1.2.1 (UTC 2008-12-04)

Audio
ID                             : 1
Format                         : AC-3
Format/Info                    : Audio Coding 3
Mode extension                 : CM (complete main)
Format settings, Endianness    : Big
Codec ID                       : 2000
Duration                       : 1h 59mn
Bit rate mode                  : Constant
Bit rate                       : 256 Kbps
Channel(s)                     : 2 channels
Channel positions              : Front: L R
Sampling rate                  : 48.0 KHz
Bit depth                      : 16 bits
Compression mode               : Lossy
Delay relative to video        : 28ms
Stream size                    : 219 MiB (14%)
Alignment                      : Split accross interleaves
Interleave, duration           : 33 ms (1.00 video frame)
Interleave, preload duration   : 500 ms


This NFO File was rendered by NFOmation.net


I,Tonya.2017.DVDScr.XVID.HQ.Hive-CM8

Thx Hive

CM8 Doing It Right The First Time

Source: A cool dude on the street
thx

Notes:
what a nice release after Christmas. Merry Christmas to everyone, from me and TiTAN
Don´t forget watching a Screener is not like the real thing, you should still all go to the cinema and >>
support the Producers. We are especially sharing this for the people who cant visit the cinema due to >>
illness, or because it is a limited release that doesn't make it to their country. So those people also >>
can experience some award nominated movies..Enjoy

Encode:
quality was nice, not much to do

Screeners:

We are still missing downsizing, hostiles, and phantom thread. anyone want to share them for the >>
collection? Yes we want to have them all if possible, we are collectors, we don't want to release them >>
all. There will be no star wars from us, sorry wont happen
Don't post any info on public or on any blogs, its too risky. It has to be done safely and secure in >>
private, and we have proven that we can do it.

Msg us at cm8crew@hushmail.com - we will respect your wishes

if you want to share with us in private it will stay private

Video: 720x304 @bitrate 1500 2pass
Audio: English Stereo
Sample: yes included

http://www.imdb.com/title/tt5580036/

General
Complete name                  : I,Tonya.2017.DVDScr.XVID.HQ.Hive-CM8.avi
Format                         : AVI
Format/Info                    : Audio Video Interleave
File size                      : 1.48 GiB
Duration                       : 1h 59mn
Overall bit rate               : 1 767 Kbps
Writing application            : Nandub v1.0rc2
Writing library                : Nandub build 1853/release

Video
ID                             : 0
Format                         : MPEG-4 Visual
Format profile                 : Advanced Simple@L5
Format settings, BVOP          : 2
Format settings, QPel          : Yes
Format settings, GMC           : No warppoints
Format settings, Matrix        : Default (H.263)
Muxing mode                    : Packed bitstream
Codec ID                       : XVID
Codec ID/Hint                  : XviD
Duration                       : 1h 59mn
Bit rate                       : 1 499 Kbps
Width                          : 720 pixels
Height                         : 304 pixels
Display aspect ratio           : 2.35:1
Frame rate                     : 30.000 fps
Color space                    : YUV
Chroma subsampling             : 4:2:0
Bit depth                      : 8 bits
Scan type                      : Progressive
Compression mode               : Lossy
Bits/(Pixel*Frame)             : 0.228
Stream size                    : 1.25 GiB (85%)
Writing library                : XviD 1.2.1 (UTC 2008-12-04)

Audio
ID                             : 1
Format                         : AC-3
Format/Info                    : Audio Coding 3
Mode extension                 : CM (complete main)
Format settings, Endianness    : Big
Codec ID                       : 2000
Duration                       : 1h 59mn
Bit rate mode                  : Constant
Bit rate                       : 256 Kbps
Channel(s)                     : 2 channels
Channel positions              : Front: L R
Sampling rate                  : 48.0 KHz
Bit depth                      : 16 bits
Compression mode               : Lossy
Delay relative to video        : 28ms
Stream size                    : 219 MiB (14%)
Alignment                      : Split accross interleaves
Interleave, duration           : 33 ms (1.00 video frame)
Interleave, preload duration   : 500 ms


This NFO File was rendered by NFOmation.net


Bookmark and Share

<Mascot>
[ Sitemap ]

aa21