NFOmation.net - Your Ultimate NFO Upload Resource! Viewing NFO file: Jumanji_Welcome_to_the_Jungle_2017_720p_HDCAM_x264_AAC.nfo Jumanji_Welcome_to_the_Jungle_2017_720p_HDCAM_x264_AAC

http://www.imdb.com/title/tt2283362

Four teenagers discover an old video game console and are literally drawn into the game's jungle setting, >>
becoming the adult avatars they choose.

Director: Jake Kasdan
Writers: Chris McKenna (screenplay by), Erik Sommers (screenplay by)
Stars: Dwayne Johnson, Karen Gillan, Kevin Hart

Format : Matroska
Format version : Version 4 / Version 2
File size : 1.22 GiB
Duration : 1 h 50 min
Overall bit rate : 1 572 kb/s

ID : 1
Format : AVC
Format/Info : Advanced Video Codec
Format profile : [email protected]
Format settings : CABAC / 4 Ref Frames
Format settings, CABAC : Yes
Format settings, ReFrames : 4 frames
Codec ID : V_MPEG4/ISO/AVC
Duration : 1 h 50 min
Bit rate : 1 500 kb/s
Width : 1 280 pixels
Height : 512 pixels
Display aspect ratio : 2.500
Frame rate mode : Constant
Frame rate : 29.970 (30000/1001) FPS
Color space : YUV
Chroma subsampling : 4:2:0
Bit depth : 8 bits
Scan type : Progressive
Bits/(Pixel*Frame) : 0.076
Stream size : 1.14 GiB (94%)
Writing library : x264 core 148 r2708 86b7198
Default : Yes
Forced : No


This NFO File was rendered by NFOmation.net

http://www.imdb.com/title/tt2283362

Four teenagers discover an old video game console and are literally drawn into the game's jungle setting, >>
becoming the adult avatars they choose.

Director: Jake Kasdan
Writers: Chris McKenna (screenplay by), Erik Sommers (screenplay by)
Stars: Dwayne Johnson, Karen Gillan, Kevin Hart

Format : Matroska
Format version : Version 4 / Version 2
File size : 1.22 GiB
Duration : 1 h 50 min
Overall bit rate : 1 572 kb/s

ID : 1
Format : AVC
Format/Info : Advanced Video Codec
Format profile : [email protected]
Format settings : CABAC / 4 Ref Frames
Format settings, CABAC : Yes
Format settings, ReFrames : 4 frames
Codec ID : V_MPEG4/ISO/AVC
Duration : 1 h 50 min
Bit rate : 1 500 kb/s
Width : 1 280 pixels
Height : 512 pixels
Display aspect ratio : 2.500
Frame rate mode : Constant
Frame rate : 29.970 (30000/1001) FPS
Color space : YUV
Chroma subsampling : 4:2:0
Bit depth : 8 bits
Scan type : Progressive
Bits/(Pixel*Frame) : 0.076
Stream size : 1.14 GiB (94%)
Writing library : x264 core 148 r2708 86b7198
Default : Yes
Forced : No


This NFO File was rendered by NFOmation.net


Bookmark and Share

<Mascot>
[ Sitemap ]

aa21