NFOmation.net - Your Ultimate NFO Upload Resource! Viewing NFO file: Jumanji.2017.TS.READNFO.XViD-BL4CKP34RL.nfo Jumanji.2017.TS.READNFO.XViD-BL4CKP34RL

A Fine Release Brought to you from - BL4CKP34RL

******************************************************************************************
Jumanji.2017.TS.READNFO.XViD-BL4CKP34RL
******************************************************************************************

Ripper ...........: J4CKSP4RR0W IMDB Rating.......: 7.1/10
Video Codec.......: XViD Release Date......: 24 December 2017
Audio Codec.......: mp3 Theatre Date......: 20 December 2017
Audio Bitrate.....: 128 kbps Runtime...........: 1hr 50min 49sec
Subtitles.........: n/a Language..........: ENGLISH
Resolution........: 720x288 IMDb URL..........: http://www.imdb.com/title/tt2283362/

DETAILS:

Format : AVI
Format/Info : Audio Video Interleave
File size : 1.36 GiB
Duration : 1h 50mn
Overall bit rate : 1 761 Kbps
Writing library : VirtualDub build 32839/release

Video
ID : 0
Format : MPEG-4 Visual
Format profile : Advanced Simple@L5
Format settings, BVOP : 2
Format settings, QPel : Yes
Format settings, GMC : No warppoints
Format settings, Matrix : Default (H.263)
Muxing mode : Packed bitstream
Codec ID : XVID
Codec ID/Hint : XviD
Duration : 1h 50mn
Bit rate : 1 621 Kbps
Width : 720 pixels
Height : 288 pixels
Display aspect ratio : 2.500
Frame rate : 29.970 fps
Color space : YUV
Chroma subsampling : 4:2:0
Bit depth : 8 bits
Scan type : Progressive
Compression mode : Lossy
Bits/(Pixel*Frame) : 0.261
Stream size : 1.26 GiB (92%)
Writing library : XviD 67

Audio
ID : 1
Format : MPEG Audio
Format version : Version 1
Format profile : Layer 3
Mode : Joint stereo
Mode extension : MS Stereo
Codec ID : 55
Codec ID/Hint : MP3
Duration : 1h 50mn
Bit rate mode : Constant
Bit rate : 128 Kbps
Channel(s) : 2 channels
Sampling rate : 44.1 KHz
Compression mode : Lossy
Stream size : 101 MiB (7%)
Alignment : Split accross interleaves
Interleave, duration : 33 ms (1.00 video frame)
Writing library : LAME3.99r
Encoding settings : -m j -V 4 -q 2 -lowpass 17 -b 128

SOURCES:

VIDEO: ............. A Friend ...thanks
AUDIO: ............. A Friend ...thanks

NOTES:

Took the source we were passed and went to work, crop, resize few other tweaks and had to use 7 min of >>
CAM audio for the start as the LiNE we had was missing 7 min so after 7 min and sum seconds the audio >>
gets alot better..

REASON FOR READNFO : IT HAS 7 MIN AND SUM SEC OF CAM AUDIO AT START THEN IT SWITCHES TO LiNE



This NFO File was rendered by NFOmation.net

A Fine Release Brought to you from - BL4CKP34RL

******************************************************************************************
Jumanji.2017.TS.READNFO.XViD-BL4CKP34RL
******************************************************************************************

Ripper ...........: J4CKSP4RR0W IMDB Rating.......: 7.1/10
Video Codec.......: XViD Release Date......: 24 December 2017
Audio Codec.......: mp3 Theatre Date......: 20 December 2017
Audio Bitrate.....: 128 kbps Runtime...........: 1hr 50min 49sec
Subtitles.........: n/a Language..........: ENGLISH
Resolution........: 720x288 IMDb URL..........: http://www.imdb.com/title/tt2283362/

DETAILS:

Format : AVI
Format/Info : Audio Video Interleave
File size : 1.36 GiB
Duration : 1h 50mn
Overall bit rate : 1 761 Kbps
Writing library : VirtualDub build 32839/release

Video
ID : 0
Format : MPEG-4 Visual
Format profile : Advanced Simple@L5
Format settings, BVOP : 2
Format settings, QPel : Yes
Format settings, GMC : No warppoints
Format settings, Matrix : Default (H.263)
Muxing mode : Packed bitstream
Codec ID : XVID
Codec ID/Hint : XviD
Duration : 1h 50mn
Bit rate : 1 621 Kbps
Width : 720 pixels
Height : 288 pixels
Display aspect ratio : 2.500
Frame rate : 29.970 fps
Color space : YUV
Chroma subsampling : 4:2:0
Bit depth : 8 bits
Scan type : Progressive
Compression mode : Lossy
Bits/(Pixel*Frame) : 0.261
Stream size : 1.26 GiB (92%)
Writing library : XviD 67

Audio
ID : 1
Format : MPEG Audio
Format version : Version 1
Format profile : Layer 3
Mode : Joint stereo
Mode extension : MS Stereo
Codec ID : 55
Codec ID/Hint : MP3
Duration : 1h 50mn
Bit rate mode : Constant
Bit rate : 128 Kbps
Channel(s) : 2 channels
Sampling rate : 44.1 KHz
Compression mode : Lossy
Stream size : 101 MiB (7%)
Alignment : Split accross interleaves
Interleave, duration : 33 ms (1.00 video frame)
Writing library : LAME3.99r
Encoding settings : -m j -V 4 -q 2 -lowpass 17 -b 128

SOURCES:

VIDEO: ............. A Friend ...thanks
AUDIO: ............. A Friend ...thanks

NOTES:

Took the source we were passed and went to work, crop, resize few other tweaks and had to use 7 min of >>
CAM audio for the start as the LiNE we had was missing 7 min so after 7 min and sum seconds the audio >>
gets alot better..

REASON FOR READNFO : IT HAS 7 MIN AND SUM SEC OF CAM AUDIO AT START THEN IT SWITCHES TO LiNE



This NFO File was rendered by NFOmation.net


Bookmark and Share

<Mascot>
[ Sitemap ]

aa21