NFOmation.net - Your Ultimate NFO Upload Resource! Viewing NFO file: nfo.txt nfo.txt

http://www.imdb.com/title/tt3411444/

 pretty nice cam here, video is real good, audio is cam, but very understandable. for the kiddies. Enjoy

 General

 Format                      : Matroska
 Format version              : Version 2
 File size                   : 1.32 GiB
 Duration                    : 1 h 37 min
 Overall bit rate mode       : Variable
 Overall bit rate            : 1 944 kb/s
 Encoded date                : UTC 2018-01-10 01:05:38
 Writing application         : mkvmerge v19.0.0 ('Brave Captain') 64-bit
 Writing library             : libebml v1.3.5 + libmatroska v1.4.8

 Video
 ID                          : 1
 Format                      : AVC
 Format/Info                 : Advanced Video Codec
 Format profile              : High@L4.1
 Format settings             : CABAC / 3 Ref Frames
 Format settings, CABAC      : Yes
 Format settings, ReFrames   : 3 frames
 Codec ID                    : V_MPEG4/ISO/AVC
 Duration                    : 1 h 37 min
 Bit rate mode               : Variable
 Bit rate                    : 1 750 kb/s
 Maximum bit rate            : 40.0 Mb/s
 Width                       : 720 pixels
 Height                      : 330 pixels
 Display aspect ratio        : 2.2:1
 Frame rate mode             : Constant
 Frame rate                  : 29.970 (29970/1000) FPS
 Original frame rate         : 29.970 (30000/1001) FPS
 Color space                 : YUV
 Chroma subsampling          : 4:2:0
 Bit depth                   : 8 bits
 Scan type                   : Progressive
 Bits/(Pixel*Frame)          : 0.246
 Stream size                 : 1.19 GiB (90%)
 Default                     : Yes
 Forced                      : No
 Color range                 : Full
 Color primaries             : BT.709
 Transfer characteristics    : BT.709
 Matrix coefficients         : BT.709

 Audio
 ID                          : 2
 Format                      : AC-3
 Format/Info                 : Audio Coding 3
 Codec ID                    : A_AC3
 Duration                    : 1 h 37 min
 Bit rate mode               : Constant
 Bit rate                    : 192 kb/s
 Channel(s)                  : 2 channels
 Channel positions           : Front: L R
 Sampling rate               : 44.1 kHz
 Frame rate                  : 28.711 FPS (1536 SPF)
 Bit depth                   : 16 bits
 Compression mode            : Lossy
 Stream size                 : 134 MiB (10%)
 Service kind                : Complete Main
 Default                     : Yes
 Forced                      : No



This NFO File was rendered by NFOmation.net

http://www.imdb.com/title/tt3411444/

 pretty nice cam here, video is real good, audio is cam, but very understandable. for the kiddies. Enjoy

 General

 Format                      : Matroska
 Format version              : Version 2
 File size                   : 1.32 GiB
 Duration                    : 1 h 37 min
 Overall bit rate mode       : Variable
 Overall bit rate            : 1 944 kb/s
 Encoded date                : UTC 2018-01-10 01:05:38
 Writing application         : mkvmerge v19.0.0 ('Brave Captain') 64-bit
 Writing library             : libebml v1.3.5 + libmatroska v1.4.8

 Video
 ID                          : 1
 Format                      : AVC
 Format/Info                 : Advanced Video Codec
 Format profile              : High@L4.1
 Format settings             : CABAC / 3 Ref Frames
 Format settings, CABAC      : Yes
 Format settings, ReFrames   : 3 frames
 Codec ID                    : V_MPEG4/ISO/AVC
 Duration                    : 1 h 37 min
 Bit rate mode               : Variable
 Bit rate                    : 1 750 kb/s
 Maximum bit rate            : 40.0 Mb/s
 Width                       : 720 pixels
 Height                      : 330 pixels
 Display aspect ratio        : 2.2:1
 Frame rate mode             : Constant
 Frame rate                  : 29.970 (29970/1000) FPS
 Original frame rate         : 29.970 (30000/1001) FPS
 Color space                 : YUV
 Chroma subsampling          : 4:2:0
 Bit depth                   : 8 bits
 Scan type                   : Progressive
 Bits/(Pixel*Frame)          : 0.246
 Stream size                 : 1.19 GiB (90%)
 Default                     : Yes
 Forced                      : No
 Color range                 : Full
 Color primaries             : BT.709
 Transfer characteristics    : BT.709
 Matrix coefficients         : BT.709

 Audio
 ID                          : 2
 Format                      : AC-3
 Format/Info                 : Audio Coding 3
 Codec ID                    : A_AC3
 Duration                    : 1 h 37 min
 Bit rate mode               : Constant
 Bit rate                    : 192 kb/s
 Channel(s)                  : 2 channels
 Channel positions           : Front: L R
 Sampling rate               : 44.1 kHz
 Frame rate                  : 28.711 FPS (1536 SPF)
 Bit depth                   : 16 bits
 Compression mode            : Lossy
 Stream size                 : 134 MiB (10%)
 Service kind                : Complete Main
 Default                     : Yes
 Forced                      : No



This NFO File was rendered by NFOmation.net


Bookmark and Share

<Mascot>
[ Sitemap ]

aa21