NFOmation.net - Your Ultimate NFO Upload Resource! Viewing NFO file: Mollys.Game.2017.DVDScr.XVID.AC3.HQ.Hive-CM8.txt Mollys.Game.2017.DVDScr.XVID.AC3.HQ.Hive-CM8.txt

Mollys.Game.2017.DVDScr.XVID.AC3.HQ.Hive-CM8

Thx Hive

CM8 Doing It Right The First Time

Source: a cool dude on the street
thx

Notes:
another goodie, hot title, gross meets budget now so free for all
Don┤t forget watching a scr is not like the real thing, you should still all go to the cinema and support >>
the Producers, thx
We especially sharing this for the people who cant visit the cinema due to illness or because it is a >>
limited release that doesnt make it to their country,
so that they also can experience some award nominations.

Encode:
quality was nice, not much to do
enjoy

Screeners:
Anyone willing to help the cause?
still missing a few of the last good titles if you'd like to share?
hostiles, downsizing, phantom thread, gr.showman, money in the world, wonder etc.?
Contact us - we always respect your wishes.
Only serious people plz.

Video: 720x288 @bitrate 1700 2pass
Audio: English Stereo
Sample: yes included

http://www.imdb.com/title/tt4209788/

General
Complete name                  : Mollys.Game.2017.DVDScr.XVID.AC3.HQ.Hive-CM8.avi
Format                         : AVI
Format/Info                    : Audio Video Interleave
File size                      : 1.78 GiB
Duration                       : 2h 19mn
Overall bit rate               : 1 821 Kbps
Writing application            : Nandub v1.0rc2
Writing library                : Nandub build 1853/release

Video
ID                             : 0
Format                         : MPEG-4 Visual
Format profile                 : Advanced Simple@L5
Format settings, BVOP          : 2
Format settings, QPel          : Yes
Format settings, GMC           : No warppoints
Format settings, Matrix        : Default (H.263)
Muxing mode                    : Packed bitstream
Codec ID                       : XVID
Codec ID/Hint                  : XviD
Duration                       : 2h 19mn
Bit rate                       : 1 553 Kbps
Width                          : 720 pixels
Height                         : 288 pixels
Display aspect ratio           : 2.500
Frame rate                     : 29.970 fps
Color space                    : YUV
Chroma subsampling             : 4:2:0
Bit depth                      : 8 bits
Scan type                      : Progressive
Compression mode               : Lossy
Bits/(Pixel*Frame)             : 0.250
Stream size                    : 1.52 GiB (85%)
Writing library                : XviD 1.2.1 (UTC 2008-12-04)

Audio
ID                             : 1
Format                         : AC-3
Format/Info                    : Audio Coding 3
Mode extension                 : CM (complete main)
Format settings, Endianness    : Big
Codec ID                       : 2000
Duration                       : 2h 19mn
Bit rate mode                  : Constant
Bit rate                       : 256 Kbps
Channel(s)                     : 2 channels
Channel positions              : Front: L R
Sampling rate                  : 48.0 KHz
Bit depth                      : 16 bits
Compression mode               : Lossy
Delay relative to video        : 1ms
Stream size                    : 256 MiB (14%)
Alignment                      : Split accross interleaves
Interleave, duration           : 33 ms (1.00 video frame)
Interleave, preload duration   : 500 ms


This NFO File was rendered by NFOmation.net

Mollys.Game.2017.DVDScr.XVID.AC3.HQ.Hive-CM8

Thx Hive

CM8 Doing It Right The First Time

Source: a cool dude on the street
thx

Notes:
another goodie, hot title, gross meets budget now so free for all
Don´t forget watching a scr is not like the real thing, you should still all go to the cinema and support >>
the Producers, thx
We especially sharing this for the people who cant visit the cinema due to illness or because it is a >>
limited release that doesnt make it to their country,
so that they also can experience some award nominations.

Encode:
quality was nice, not much to do
enjoy

Screeners:
Anyone willing to help the cause?
still missing a few of the last good titles if you'd like to share?
hostiles, downsizing, phantom thread, gr.showman, money in the world, wonder etc.?
Contact us - we always respect your wishes.
Only serious people plz.

Video: 720x288 @bitrate 1700 2pass
Audio: English Stereo
Sample: yes included

http://www.imdb.com/title/tt4209788/

General
Complete name                  : Mollys.Game.2017.DVDScr.XVID.AC3.HQ.Hive-CM8.avi
Format                         : AVI
Format/Info                    : Audio Video Interleave
File size                      : 1.78 GiB
Duration                       : 2h 19mn
Overall bit rate               : 1 821 Kbps
Writing application            : Nandub v1.0rc2
Writing library                : Nandub build 1853/release

Video
ID                             : 0
Format                         : MPEG-4 Visual
Format profile                 : Advanced Simple@L5
Format settings, BVOP          : 2
Format settings, QPel          : Yes
Format settings, GMC           : No warppoints
Format settings, Matrix        : Default (H.263)
Muxing mode                    : Packed bitstream
Codec ID                       : XVID
Codec ID/Hint                  : XviD
Duration                       : 2h 19mn
Bit rate                       : 1 553 Kbps
Width                          : 720 pixels
Height                         : 288 pixels
Display aspect ratio           : 2.500
Frame rate                     : 29.970 fps
Color space                    : YUV
Chroma subsampling             : 4:2:0
Bit depth                      : 8 bits
Scan type                      : Progressive
Compression mode               : Lossy
Bits/(Pixel*Frame)             : 0.250
Stream size                    : 1.52 GiB (85%)
Writing library                : XviD 1.2.1 (UTC 2008-12-04)

Audio
ID                             : 1
Format                         : AC-3
Format/Info                    : Audio Coding 3
Mode extension                 : CM (complete main)
Format settings, Endianness    : Big
Codec ID                       : 2000
Duration                       : 2h 19mn
Bit rate mode                  : Constant
Bit rate                       : 256 Kbps
Channel(s)                     : 2 channels
Channel positions              : Front: L R
Sampling rate                  : 48.0 KHz
Bit depth                      : 16 bits
Compression mode               : Lossy
Delay relative to video        : 1ms
Stream size                    : 256 MiB (14%)
Alignment                      : Split accross interleaves
Interleave, duration           : 33 ms (1.00 video frame)
Interleave, preload duration   : 500 ms


This NFO File was rendered by NFOmation.net


Bookmark and Share

<Mascot>
[ Sitemap ]

aa21