NFOmation.net - Your Ultimate NFO Upload Resource! Viewing NFO file: Manhunt.2017.CHINESE.1080p.BluRay.REMUX.AVC.TrueHD.7.1-FGT.nfo Manhunt.2017.CHINESE.1080p.BluRay.REMUX.AVC.TrueHD.7.1-FGT

Video
ID                                       : 1
Format                                   : AVC
Format/Info                              : Advanced Video Codec
Format profile                           : High@L4.1
Format settings                          : CABAC / 4 Ref Frames
Format settings, CABAC                   : Yes
Format settings, ReFrames                : 4 frames
Codec ID                                 : V_MPEG4/ISO/AVC
Duration                                 : 1 h 49 min
Bit rate mode                            : Constant
Bit rate                                 : 33.0 Mb/s
Nominal bit rate                         : 35.0 Mb/s
Width                                    : 1 920 pixels
Height                                   : 1 080 pixels
Display aspect ratio                     : 16:9
Frame rate mode                          : Constant
Frame rate                               : 24.000 FPS
Standard                                 : NTSC
Color space                              : YUV
Chroma subsampling                       : 4:2:0
Bit depth                                : 8 bits
Scan type                                : Progressive
Bits/(Pixel*Frame)                       : 0.662
Stream size                              : 25.1 GiB (87%)
Title                                    : Manhunt.2017.CHINESE.1080p.BluRay.REMUX.AVC.TrueHD.7.1-FGT
Language                                 : English
Default                                  : No
Forced                                   : No
Color range                              : Limited
Color primaries                          : BT.709
Transfer characteristics                 : BT.709
Matrix coefficients                      : BT.709

Audio #1
ID                                       : 2
Format                                   : TrueHD
Codec ID                                 : A_TRUEHD
Duration                                 : 1 h 49 min
Bit rate mode                            : Variable
Bit rate                                 : 3 758 kb/s
Maximum bit rate                         : 5 964 kb/s
Channel(s)                               : 8 channels
Channel positions                        : Front: L C R, Side: L R, Back: L R, LFE
Sampling rate                            : 96.0 kHz
Frame rate                               : 2 400.000 FPS (40 SPF)
Compression mode                         : Lossless
Stream size                              : 2.87 GiB (10%)
Title                                    : Manhunt.2017.CHINESE.1080p.BluRay.REMUX.AVC.TrueHD.7.1-FGT
Language                                 : Chinese
Default                                  : Yes
Forced                                   : No

Audio #2
ID                                       : 3
Format                                   : AC-3
Format/Info                              : Audio Coding 3
Codec ID                                 : A_AC3
Duration                                 : 1 h 49 min
Bit rate mode                            : Constant
Bit rate                                 : 640 kb/s
Channel(s)                               : 6 channels
Channel positions                        : Front: L C R, Side: L R, LFE
Sampling rate                            : 48.0 kHz
Frame rate                               : 31.250 FPS (1536 SPF)
Bit depth                                : 16 bits
Compression mode                         : Lossy
Stream size                              : 500 MiB (2%)
Title                                    : Manhunt.2017.CHINESE.1080p.BluRay.REMUX.AVC.TrueHD.7.1-FGT
Language                                 : Chinese
Service kind                             : Complete Main
Default                                  : No
Forced                                   : No

Audio #3
ID                                       : 4
Format                                   : AC-3
Format/Info                              : Audio Coding 3
Codec ID                                 : A_AC3
Duration                                 : 1 h 49 min
Bit rate mode                            : Constant
Bit rate                                 : 640 kb/s
Channel(s)                               : 6 channels
Channel positions                        : Front: L C R, Side: L R, LFE
Sampling rate                            : 48.0 kHz
Frame rate                               : 31.250 FPS (1536 SPF)
Bit depth                                : 16 bits
Compression mode                         : Lossy
Stream size                              : 500 MiB (2%)
Title                                    : Manhunt.2017.CHINESE.1080p.BluRay.REMUX.AVC.TrueHD.7.1-FGT
Language                                 : Chinese
Service kind                             : Complete Main
Default                                  : No
Forced                                   : No

Text #1
ID                                       : 5
Format                                   : PGS
Muxing mode                              : zlib
Codec ID                                 : S_HDMV/PGS
Codec ID/Info                            : Picture based subtitle format used on BDs/HD-DVDs
Duration                                 : 1 h 43 min
Bit rate                                 : 29.7 kb/s
Count of elements                        : 2419
Stream size                              : 21.9 MiB (0%)
Title                                    : English-PGS
Language                                 : English
Default                                  : Yes
Forced                                   : No

Text #2
ID                                       : 6
Format                                   : PGS
Muxing mode                              : zlib
Codec ID                                 : S_HDMV/PGS
Codec ID/Info                            : Picture based subtitle format used on BDs/HD-DVDs
Duration                                 : 1 h 43 min
Bit rate                                 : 26.9 kb/s
Count of elements                        : 2419
Stream size                              : 19.8 MiB (0%)
Title                                    : Chinese-PGS
Language                                 : Chinese
Default                                  : No
Forced                                   : No

Text #3
ID                                       : 7
Format                                   : PGS
Muxing mode                              : zlib
Codec ID                                 : S_HDMV/PGS
Codec ID/Info                            : Picture based subtitle format used on BDs/HD-DVDs
Duration                                 : 1 h 43 min
Bit rate                                 : 26.3 kb/s
Count of elements                        : 2419
Stream size                              : 19.4 MiB (0%)
Title                                    : Chinese-PGS
Language                                 : Chinese
Default                                  : No
Forced                                   : No

Menu
00:00:00.000                             : en:Chapter 01
00:10:31.666                             : en:Chapter 02
00:18:13.541                             : en:Chapter 03
00:29:30.583                             : en:Chapter 04
00:37:41.083                             : en:Chapter 05
00:45:25.666                             : en:Chapter 06
00:54:11.250                             : en:Chapter 07
01:02:20.458                             : en:Chapter 08
01:12:22.250                             : en:Chapter 09
01:20:37.875                             : en:Chapter 10
01:30:19.000                             : en:Chapter 11
01:43:09.541                             : en:Chapter 12



This NFO File was rendered by NFOmation.net

Video
ID                                       : 1
Format                                   : AVC
Format/Info                              : Advanced Video Codec
Format profile                           : High@L4.1
Format settings                          : CABAC / 4 Ref Frames
Format settings, CABAC                   : Yes
Format settings, ReFrames                : 4 frames
Codec ID                                 : V_MPEG4/ISO/AVC
Duration                                 : 1 h 49 min
Bit rate mode                            : Constant
Bit rate                                 : 33.0 Mb/s
Nominal bit rate                         : 35.0 Mb/s
Width                                    : 1 920 pixels
Height                                   : 1 080 pixels
Display aspect ratio                     : 16:9
Frame rate mode                          : Constant
Frame rate                               : 24.000 FPS
Standard                                 : NTSC
Color space                              : YUV
Chroma subsampling                       : 4:2:0
Bit depth                                : 8 bits
Scan type                                : Progressive
Bits/(Pixel*Frame)                       : 0.662
Stream size                              : 25.1 GiB (87%)
Title                                    : Manhunt.2017.CHINESE.1080p.BluRay.REMUX.AVC.TrueHD.7.1-FGT
Language                                 : English
Default                                  : No
Forced                                   : No
Color range                              : Limited
Color primaries                          : BT.709
Transfer characteristics                 : BT.709
Matrix coefficients                      : BT.709

Audio #1
ID                                       : 2
Format                                   : TrueHD
Codec ID                                 : A_TRUEHD
Duration                                 : 1 h 49 min
Bit rate mode                            : Variable
Bit rate                                 : 3 758 kb/s
Maximum bit rate                         : 5 964 kb/s
Channel(s)                               : 8 channels
Channel positions                        : Front: L C R, Side: L R, Back: L R, LFE
Sampling rate                            : 96.0 kHz
Frame rate                               : 2 400.000 FPS (40 SPF)
Compression mode                         : Lossless
Stream size                              : 2.87 GiB (10%)
Title                                    : Manhunt.2017.CHINESE.1080p.BluRay.REMUX.AVC.TrueHD.7.1-FGT
Language                                 : Chinese
Default                                  : Yes
Forced                                   : No

Audio #2
ID                                       : 3
Format                                   : AC-3
Format/Info                              : Audio Coding 3
Codec ID                                 : A_AC3
Duration                                 : 1 h 49 min
Bit rate mode                            : Constant
Bit rate                                 : 640 kb/s
Channel(s)                               : 6 channels
Channel positions                        : Front: L C R, Side: L R, LFE
Sampling rate                            : 48.0 kHz
Frame rate                               : 31.250 FPS (1536 SPF)
Bit depth                                : 16 bits
Compression mode                         : Lossy
Stream size                              : 500 MiB (2%)
Title                                    : Manhunt.2017.CHINESE.1080p.BluRay.REMUX.AVC.TrueHD.7.1-FGT
Language                                 : Chinese
Service kind                             : Complete Main
Default                                  : No
Forced                                   : No

Audio #3
ID                                       : 4
Format                                   : AC-3
Format/Info                              : Audio Coding 3
Codec ID                                 : A_AC3
Duration                                 : 1 h 49 min
Bit rate mode                            : Constant
Bit rate                                 : 640 kb/s
Channel(s)                               : 6 channels
Channel positions                        : Front: L C R, Side: L R, LFE
Sampling rate                            : 48.0 kHz
Frame rate                               : 31.250 FPS (1536 SPF)
Bit depth                                : 16 bits
Compression mode                         : Lossy
Stream size                              : 500 MiB (2%)
Title                                    : Manhunt.2017.CHINESE.1080p.BluRay.REMUX.AVC.TrueHD.7.1-FGT
Language                                 : Chinese
Service kind                             : Complete Main
Default                                  : No
Forced                                   : No

Text #1
ID                                       : 5
Format                                   : PGS
Muxing mode                              : zlib
Codec ID                                 : S_HDMV/PGS
Codec ID/Info                            : Picture based subtitle format used on BDs/HD-DVDs
Duration                                 : 1 h 43 min
Bit rate                                 : 29.7 kb/s
Count of elements                        : 2419
Stream size                              : 21.9 MiB (0%)
Title                                    : English-PGS
Language                                 : English
Default                                  : Yes
Forced                                   : No

Text #2
ID                                       : 6
Format                                   : PGS
Muxing mode                              : zlib
Codec ID                                 : S_HDMV/PGS
Codec ID/Info                            : Picture based subtitle format used on BDs/HD-DVDs
Duration                                 : 1 h 43 min
Bit rate                                 : 26.9 kb/s
Count of elements                        : 2419
Stream size                              : 19.8 MiB (0%)
Title                                    : Chinese-PGS
Language                                 : Chinese
Default                                  : No
Forced                                   : No

Text #3
ID                                       : 7
Format                                   : PGS
Muxing mode                              : zlib
Codec ID                                 : S_HDMV/PGS
Codec ID/Info                            : Picture based subtitle format used on BDs/HD-DVDs
Duration                                 : 1 h 43 min
Bit rate                                 : 26.3 kb/s
Count of elements                        : 2419
Stream size                              : 19.4 MiB (0%)
Title                                    : Chinese-PGS
Language                                 : Chinese
Default                                  : No
Forced                                   : No

Menu
00:00:00.000                             : en:Chapter 01
00:10:31.666                             : en:Chapter 02
00:18:13.541                             : en:Chapter 03
00:29:30.583                             : en:Chapter 04
00:37:41.083                             : en:Chapter 05
00:45:25.666                             : en:Chapter 06
00:54:11.250                             : en:Chapter 07
01:02:20.458                             : en:Chapter 08
01:12:22.250                             : en:Chapter 09
01:20:37.875                             : en:Chapter 10
01:30:19.000                             : en:Chapter 11
01:43:09.541                             : en:Chapter 12



This NFO File was rendered by NFOmation.net


Bookmark and Share

<Mascot>
[ Sitemap ]

aa21